  0
SECTION
  2
HEADER
  9
$ACADVER
  1
AC1015
  9
$ACADMAINTVER
 70
    13
  9
$DWGCODEPAGE
  3
ANSI_932
  9
$INSBASE
 10
0.0
 20
0.0
 30
0.0
  9
$EXTMIN
 10
0.0
 20
-0.000000000000071
 30
0.0
  9
$EXTMAX
 10
2100.0
 20
1485.0
 30
0.0
  9
$LIMMIN
 10
0.0
 20
0.0
  9
$LIMMAX
 10
420.0
 20
297.0
  9
$ORTHOMODE
 70
     0
  9
$REGENMODE
 70
     1
  9
$FILLMODE
 70
     1
  9
$QTEXTMODE
 70
     0
  9
$MIRRTEXT
 70
     1
  9
$LTSCALE
 40
25.4
  9
$ATTMODE
 70
     1
  9
$TEXTSIZE
 40
0.2
  9
$TRACEWID
 40
0.05
  9
$TEXTSTYLE
  7
STANDARD
  9
$CLAYER
  8
MEASURE
  9
$CELTYPE
  6
CONTINUOUS
  9
$CECOLOR
 62
   256
  9
$CELTSCALE
 40
1.0
  9
$DISPSILH
 70
     0
  9
$DIMSCALE
 40
5.0
  9
$DIMASZ
 40
2.5
  9
$DIMEXO
 40
1.0
  9
$DIMDLI
 40
0.38
  9
$DIMRND
 40
0.0
  9
$DIMDLE
 40
0.0
  9
$DIMEXE
 40
2.0
  9
$DIMTP
 40
0.0
  9
$DIMTM
 40
0.0
  9
$DIMTXT
 40
3.5
  9
$DIMCEN
 40
-2.0
  9
$DIMTSZ
 40
0.0
  9
$DIMTOL
 70
     0
  9
$DIMLIM
 70
     0
  9
$DIMTIH
 70
     0
  9
$DIMTOH
 70
     0
  9
$DIMSE1
 70
     0
  9
$DIMSE2
 70
     0
  9
$DIMTAD
 70
     1
  9
$DIMZIN
 70
     8
  9
$DIMBLK
  1

  9
$DIMASO
 70
     1
  9
$DIMSHO
 70
     1
  9
$DIMPOST
  1

  9
$DIMAPOST
  1

  9
$DIMALT
 70
     0
  9
$DIMALTD
 70
     2
  9
$DIMALTF
 40
25.4
  9
$DIMLFAC
 40
1.0
  9
$DIMTOFL
 70
     1
  9
$DIMTVP
 40
0.0
  9
$DIMTIX
 70
     0
  9
$DIMSOXD
 70
     0
  9
$DIMSAH
 70
     0
  9
$DIMBLK1
  1

  9
$DIMBLK2
  1

  9
$DIMSTYLE
  2
AD-STANDARD
  9
$DIMCLRD
 70
     9
  9
$DIMCLRE
 70
     9
  9
$DIMCLRT
 70
     2
  9
$DIMTFAC
 40
1.0
  9
$DIMGAP
 40
0.5
  9
$DIMJUST
 70
     0
  9
$DIMSD1
 70
     0
  9
$DIMSD2
 70
     0
  9
$DIMTOLJ
 70
     1
  9
$DIMTZIN
 70
     8
  9
$DIMALTZ
 70
     0
  9
$DIMALTTZ
 70
     0
  9
$DIMUPT
 70
     0
  9
$DIMDEC
 70
     4
  9
$DIMTDEC
 70
     4
  9
$DIMALTU
 70
     2
  9
$DIMALTTD
 70
     2
  9
$DIMTXSTY
  7
AD-STANDARD
  9
$DIMAUNIT
 70
     0
  9
$DIMADEC
 70
     0
  9
$DIMALTRND
 40
0.0
  9
$DIMAZIN
 70
     0
  9
$DIMDSEP
 70
    46
  9
$DIMATFIT
 70
     3
  9
$DIMFRAC
 70
     0
  9
$DIMLDRBLK
  1

  9
$DIMLUNIT
 70
     2
  9
$DIMLWD
 70
    -2
  9
$DIMLWE
 70
    -2
  9
$DIMTMOVE
 70
     0
  9
$LUNITS
 70
     2
  9
$LUPREC
 70
     4
  9
$SKETCHINC
 40
0.1
  9
$FILLETRAD
 40
0.0
  9
$AUNITS
 70
     0
  9
$AUPREC
 70
     0
  9
$MENU
  1
acad
  9
$ELEVATION
 40
0.0
  9
$PELEVATION
 40
0.0
  9
$THICKNESS
 40
0.0
  9
$LIMCHECK
 70
     0
  9
$CHAMFERA
 40
0.0
  9
$CHAMFERB
 40
0.0
  9
$CHAMFERC
 40
0.0
  9
$CHAMFERD
 40
0.0
  9
$SKPOLY
 70
     0
  9
$TDCREATE
 40
2683705.106017882
  9
$TDUCREATE
 40
2683704.731017882
  9
$TDUPDATE
 40
2454280.709642882
  9
$TDUUPDATE
 40
2454280.334642882
  9
$TDINDWG
 40
0.0292923843
  9
$TDUSRTIMER
 40
0.0292921991
  9
$USRTIMER
 70
     1
  9
$ANGBASE
 50
0.0
  9
$ANGDIR
 70
     0
  9
$PDMODE
 70
     0
  9
$PDSIZE
 40
0.0
  9
$PLINEWID
 40
0.0
  9
$SPLFRAME
 70
     0
  9
$SPLINETYPE
 70
     6
  9
$SPLINESEGS
 70
     8
  9
$HANDSEED
  5
11BB
  9
$SURFTAB1
 70
     6
  9
$SURFTAB2
 70
     6
  9
$SURFTYPE
 70
     6
  9
$SURFU
 70
     6
  9
$SURFV
 70
     6
  9
$UCSBASE
  2

  9
$UCSNAME
  2

  9
$UCSORG
 10
0.0
 20
0.0
 30
0.0
  9
$UCSXDIR
 10
1.0
 20
0.0
 30
0.0
  9
$UCSYDIR
 10
0.0
 20
1.0
 30
0.0
  9
$UCSORTHOREF
  2

  9
$UCSORTHOVIEW
 70
     0
  9
$UCSORGTOP
 10
0.0
 20
0.0
 30
0.0
  9
$UCSORGBOTTOM
 10
0.0
 20
0.0
 30
0.0
  9
$UCSORGLEFT
 10
0.0
 20
0.0
 30
0.0
  9
$UCSORGRIGHT
 10
0.0
 20
0.0
 30
0.0
  9
$UCSORGFRONT
 10
0.0
 20
0.0
 30
0.0
  9
$UCSORGBACK
 10
0.0
 20
0.0
 30
0.0
  9
$PUCSBASE
  2

  9
$PUCSNAME
  2

  9
$PUCSORG
 10
0.0
 20
0.0
 30
0.0
  9
$PUCSXDIR
 10
1.0
 20
0.0
 30
0.0
  9
$PUCSYDIR
 10
0.0
 20
1.0
 30
0.0
  9
$PUCSORTHOREF
  2

  9
$PUCSORTHOVIEW
 70
     0
  9
$PUCSORGTOP
 10
0.0
 20
0.0
 30
0.0
  9
$PUCSORGBOTTOM
 10
0.0
 20
0.0
 30
0.0
  9
$PUCSORGLEFT
 10
0.0
 20
0.0
 30
0.0
  9
$PUCSORGRIGHT
 10
0.0
 20
0.0
 30
0.0
  9
$PUCSORGFRONT
 10
0.0
 20
0.0
 30
0.0
  9
$PUCSORGBACK
 10
0.0
 20
0.0
 30
0.0
  9
$USERI1
 70
     0
  9
$USERI2
 70
     0
  9
$USERI3
 70
     0
  9
$USERI4
 70
     0
  9
$USERI5
 70
     0
  9
$USERR1
 40
0.0
  9
$USERR2
 40
0.0
  9
$USERR3
 40
0.0
  9
$USERR4
 40
0.0
  9
$USERR5
 40
0.0
  9
$WORLDVIEW
 70
     1
  9
$SHADEDGE
 70
     3
  9
$SHADEDIF
 70
    70
  9
$TILEMODE
 70
     0
  9
$MAXACTVP
 70
    16
  9
$PINSBASE
 10
0.0
 20
0.0
 30
0.0
  9
$PLIMCHECK
 70
     0
  9
$PEXTMIN
 10
5.073633375116088
 20
5.056192338304015
 30
0.0
  9
$PEXTMAX
 10
413.6487541220075
 20
288.7120920239361
 30
0.0
  9
$PLIMMIN
 10
-0.1119672393489282
 20
-0.1270880979874391
  9
$PLIMMAX
 10
420.0463579559635
 20
296.9047417359969
  9
$UNITMODE
 70
     0
  9
$VISRETAIN
 70
     0
  9
$PLINEGEN
 70
     1
  9
$PSLTSCALE
 70
     1
  9
$TREEDEPTH
 70
  3020
  9
$CMLSTYLE
  2
STANDARD
  9
$CMLJUST
 70
     0
  9
$CMLSCALE
 40
1.0
  9
$PROXYGRAPHICS
 70
     0
  9
$MEASUREMENT
 70
     0
  9
$CELWEIGHT
370
    -1
  9
$ENDCAPS
280
     0
  9
$JOINSTYLE
280
     0
  9
$LWDISPLAY
290
     0
  9
$INSUNITS
 70
     0
  9
$HYPERLINKBASE
  1

  9
$STYLESHEET
  1

  9
$XEDIT
290
     1
  9
$CEPSNTYPE
380
     0
  9
$PSTYLEMODE
290
     1
  9
$FINGERPRINTGUID
  2
{8247350F-779D-44B2-8164-FC8D08436FE2}
  9
$VERSIONGUID
  2
{1BCC8CC0-7275-4E8E-AC27-CBD6422DE851}
  9
$EXTNAMES
290
     1
  9
$PSVPSCALE
 40
0.0
  9
$OLESTARTUP
290
     0
  0
ENDSEC
  0
SECTION
  2
CLASSES
  0
CLASS
  1
LWPOLYLINE
  2
AcDbPolyline
  3
AutoCAD 2000
 90
    32768
280
     0
281
     1
  0
CLASS
  1
IMAGE
  2
AcDbRasterImage
  3
ISM
 90
    32895
280
     0
281
     1
  0
CLASS
  1
OLE2FRAME
  2
AcDbOle2Frame
  3
AutoCAD 2000
 90
    32768
280
     0
281
     1
  0
CLASS
  1
HATCH
  2
AcDbHatch
  3
AutoCAD 2000
 90
    32768
280
     0
281
     1
  0
CLASS
  1
DICTIONARYVAR
  2
AcDbDictionaryVar
  3
AutoCAD 2000
 90
        0
280
     0
281
     0
  0
CLASS
  1
RASTERVARIABLES
  2
AcDbRasterVariables
  3
ISM
 90
    32768
280
     0
281
     0
  0
CLASS
  1
IMAGEDEF
  2
AcDbRasterImageDef
  3
ISM
 90
    32768
280
     0
281
     0
  0
CLASS
  1
IMAGEDEF_REACTOR
  2
AcDbRasterImageDefReactor
  3
ISM
 90
    32769
280
     0
281
     0
  0
CLASS
  1
IDBUFFER
  2
AcDbIdBuffer
  3
AutoCAD 2000
 90
    32768
280
     0
281
     0
  0
CLASS
  1
SPATIAL_FILTER
  2
AcDbSpatialFilter
  3
AutoCAD 2000
 90
        0
280
     0
281
     0
  0
CLASS
  1
XRECORD
  2
AcDbXrecord
  3
AutoCAD 2000
 90
    32768
280
     0
281
     0
  0
CLASS
  1
SORTENTSTABLE
  2
AcDbSortentsTable
  3
AutoCAD 2000
 90
    32768
280
     0
281
     0
  0
CLASS
  1
LAYER_INDEX
  2
AcDbLayerIndex
  3
AutoCAD 2000
 90
    32768
280
     0
281
     0
  0
CLASS
  1
SPATIAL_INDEX
  2
AcDbSpatialIndex
  3
AutoCAD 2000
 90
    32768
280
     0
281
     0
  0
CLASS
  1
OBJECT_PTR
  2
CAseDLPNTableRecord
  3
"ASE-LPNTableRecord"
 90
    32769
280
     0
281
     0
  0
CLASS
  1
LAYOUT
  2
AcDbLayout
  3
AutoCAD 2000
 90
        0
280
     0
281
     0
  0
CLASS
  1
PLOTSETTINGS
  2
AcDbPlotSettings
  3
AutoCAD 2000
 90
    32768
280
     0
281
     0
  0
CLASS
  1
ACDBDICTIONARYWDFLT
  2
AcDbDictionaryWithDefault
  3
AutoCAD 2000
 90
        0
280
     0
281
     0
  0
CLASS
  1
ACDBPLACEHOLDER
  2
AcDbPlaceHolder
  3
AutoCAD 2000
 90
        0
280
     0
281
     0
  0
CLASS
  1
VBA_PROJECT
  2
AcDbVbaProject
  3
acad
 90
    32768
280
     0
281
     0
  0
CLASS
  1
WIPEOUT
  2
AcDbWipeout
  3
"WipeOut|Product Desc: Object Enabler for WipeOut entity^I^I^I^I^I^I|Company: Autodesk, Inc.^I^I^I^I^I^I|WEB Address: www.autodesk.com"
 90
    32895
280
     0
281
     1
  0
CLASS
  1
WIPEOUTVARIABLES
  2
AcDbWipeoutVariables
  3
"WipeOut|Product Desc:     WipeOut Dbx Application|Company:          Autodesk, Inc.|WEB Address:      www.autodesk.com"
 90
    32768
280
     0
281
     0
  0
CLASS
  1
RTEXT
  2
RText
  3
RText|AutoCAD Express Tool|expresstools@autodesk.com
 90
    32768
280
     0
281
     1
  0
CLASS
  1
ARCALIGNEDTEXT
  2
AcDbArcAlignedText
  3
ATEXT|AutoCAD Express Tool|expresstools@autodesk.com
 90
    32768
280
     0
281
     1
  0
CLASS
  1
LONG_TRANSACTION
  2
AcDbLongTransaction
  3
AutoCAD 2000
 90
    32768
280
     0
281
     0
  0
CLASS
  1
LWPOLYLINE
  2
AcDbPolyline
  3
AutoCAD 2000
 90
    32768
280
     0
281
     1
  0
CLASS
  1
HATCH
  2
AcDbHatch
  3
AutoCAD 2000
 90
    32768
280
     0
281
     1
  0
CLASS
  1
XRECORD
  2
AcDbXrecord
  3
AutoCAD 2000
 90
    32768
280
     0
281
     0
  0
CLASS
  1
DIMASSOC
  2
AcDbDimAssoc
  3
"AcDbDimAssoc|Product Desc:     AcDim ARX App For Dimension|Company:          Autodesk, Inc.|WEB Address:      www.autodesk.com"
 90
        0
280
     0
281
     0
  0
ENDSEC
  0
SECTION
  2
TABLES
  0
TABLE
  2
VPORT
  5
7
330
0
100
AcDbSymbolTable
 70
     5
  0
VPORT
  5
11BA
330
7
100
AcDbSymbolTableRecord
100
AcDbViewportTableRecord
  2
*Active
 70
     0
 10
0.0
 20
0.0
 11
1.0
 21
1.0
 12
945.7372634852381
 22
794.9737153138423
 13
0.0
 23
0.0
 14
1.0
 24
1.0
 15
0.0
 25
0.0
 16
0.0
 26
0.0
 36
1.0
 17
0.0
 27
0.0
 37
0.0
 40
2097.281784041237
 41
1.21859296482412
 42
50.0
 43
0.0
 44
0.0
 50
0.0
 51
0.0
 71
     0
 72
   100
 73
     1
 74
     1
 75
     0
 76
     0
 77
     0
 78
     0
281
     0
 65
     1
110
0.0
120
0.0
130
0.0
111
1.0
121
0.0
131
0.0
112
0.0
122
1.0
132
0.0
 79
     0
146
0.0
  0
ENDTAB
  0
TABLE
  2
LTYPE
  5
4
330
0
100
AcDbSymbolTable
 70
     5
  0
LTYPE
  5
11
330
4
100
AcDbSymbolTableRecord
100
AcDbLinetypeTableRecord
  2
BYBLOCK
 70
     0
  3

 72
    65
 73
     0
 40
0.0
  0
LTYPE
  5
12
330
4
100
AcDbSymbolTableRecord
100
AcDbLinetypeTableRecord
  2
BYLAYER
 70
     0
  3

 72
    65
 73
     0
 40
0.0
  0
LTYPE
  5
13
330
4
100
AcDbSymbolTableRecord
100
AcDbLinetypeTableRecord
  2
CONTINUOUS
 70
     0
  3
Solid line
 72
    65
 73
     0
 40
0.0
  0
ENDTAB
  0
TABLE
  2
LAYER
  5
2
102
{ACAD_XDICTIONARY
360
9C8
102
}
330
0
100
AcDbSymbolTable
 70
    93
  0
LAYER
  5
14
330
2
100
AcDbSymbolTableRecord
100
AcDbLayerTableRecord
  2
0
 70
     0
 62
     7
  6
CONTINUOUS
370
    -3
390
74C
  0
LAYER
  5
755
330
2
100
AcDbSymbolTableRecord
100
AcDbLayerTableRecord
  2
DEFPOINTS
 70
     0
 62
     7
  6
CONTINUOUS
290
     0
370
    -3
390
74C
  0
LAYER
  5
9C3
330
2
100
AcDbSymbolTableRecord
100
AcDbLayerTableRecord
  2
MEASURE
 70
     0
 62
     9
  6
CONTINUOUS
370
    -3
390
74C
  0
LAYER
  5
9C4
330
2
100
AcDbSymbolTableRecord
100
AcDbLayerTableRecord
  2
NOTE
 70
     0
 62
     2
  6
CONTINUOUS
370
    -3
390
74C
  0
LAYER
  5
11B4
330
2
100
AcDbSymbolTableRecord
100
AcDbLayerTableRecord
  2
1
 70
     0
 62
     7
  6
CONTINUOUS
370
    -3
390
74C
  0
ENDTAB
  0
TABLE
  2
STYLE
  5
3
330
0
100
AcDbSymbolTable
 70
     3
  0
STYLE
  5
17
330
3
100
AcDbSymbolTableRecord
100
AcDbTextStyleTableRecord
  2
STANDARD
 70
     0
 40
0.0
 41
1.0
 50
0.0
 71
     0
 42
0.2
  3
txt
  4

  0
STYLE
  5
9C5
330
3
100
AcDbSymbolTableRecord
100
AcDbTextStyleTableRecord
  2
AD-STANDARD
 70
     0
 40
0.0
 41
0.8
 50
0.0
 71
     0
 42
2.5
  3
C:\Program Files\AutoCAD LT\romans.shx
  4
bigfont.shx
  0
ENDTAB
  0
TABLE
  2
VIEW
  5
5
330
0
100
AcDbSymbolTable
 70
     0
  0
ENDTAB
  0
TABLE
  2
UCS
  5
6
330
0
100
AcDbSymbolTable
 70
     0
  0
ENDTAB
  0
TABLE
  2
APPID
  5
8
330
0
100
AcDbSymbolTable
 70
     2
  0
APPID
  5
16
330
8
100
AcDbSymbolTableRecord
100
AcDbRegAppTableRecord
  2
ACAD
 70
     0
  0
APPID
  5
9C7
330
8
100
AcDbSymbolTableRecord
100
AcDbRegAppTableRecord
  2
ACAD_PSEXT
 70
     0
  0
ENDTAB
  0
TABLE
  2
DIMSTYLE
  5
9
330
0
100
AcDbSymbolTable
 70
     3
100
AcDbDimStyleTable
 71
     1
340
9C6
  0
DIMSTYLE
105
18
330
9
100
AcDbSymbolTableRecord
100
AcDbDimStyleTableRecord
  2
STANDARD
 70
     0
340
17
  0
DIMSTYLE
105
9C6
102
{ACAD_REACTORS
330
9CB
330
A4F
330
A67
330
A7F
330
A97
330
AAF
330
ACB
330
AF5
330
B0D
330
B47
330
B63
102
}
330
9
100
AcDbSymbolTableRecord
100
AcDbDimStyleTableRecord
  2
AD-STANDARD
 70
     0
 41
2.5
 42
1.0
 44
2.0
 73
     0
 74
     0
 77
     1
 78
     8
140
3.5
141
-2.0
147
0.5
172
     1
176
     9
177
     9
178
     2
284
     8
340
9C5
  0
ENDTAB
  0
TABLE
  2
BLOCK_RECORD
  5
1
330
0
100
AcDbSymbolTable
 70
    31
  0
BLOCK_RECORD
  5
A
102
{ACAD_XDICTIONARY
360
949
102
}
330
1
100
AcDbSymbolTableRecord
100
AcDbBlockTableRecord
  2
*MODEL_SPACE
340
955
  0
BLOCK_RECORD
  5
91E
102
{ACAD_XDICTIONARY
360
94D
102
}
330
1
100
AcDbSymbolTableRecord
100
AcDbBlockTableRecord
  2
*PAPER_SPACE
340
956
  0
BLOCK_RECORD
  5
F7
330
1
100
AcDbSymbolTableRecord
100
AcDbBlockTableRecord
  2
SE0
340
0
102
{BLKREFS
331
FD
102
}
  0
BLOCK_RECORD
  5
FE
330
1
100
AcDbSymbolTableRecord
100
AcDbBlockTableRecord
  2
SE2
340
0
102
{BLKREFS
331
104
102
}
  0
BLOCK_RECORD
  5
105
330
1
100
AcDbSymbolTableRecord
100
AcDbBlockTableRecord
  2
SE4
340
0
102
{BLKREFS
331
10B
102
}
  0
BLOCK_RECORD
  5
A50
330
1
100
AcDbSymbolTableRecord
100
AcDbBlockTableRecord
  2
*D21
340
0
  0
BLOCK_RECORD
  5
A68
330
1
100
AcDbSymbolTableRecord
100
AcDbBlockTableRecord
  2
*D22
340
0
  0
BLOCK_RECORD
  5
A80
330
1
100
AcDbSymbolTableRecord
100
AcDbBlockTableRecord
  2
*D23
340
0
  0
BLOCK_RECORD
  5
A98
330
1
100
AcDbSymbolTableRecord
100
AcDbBlockTableRecord
  2
*D24
340
0
  0
BLOCK_RECORD
  5
AB0
330
1
100
AcDbSymbolTableRecord
100
AcDbBlockTableRecord
  2
*D25
340
0
  0
BLOCK_RECORD
  5
ACC
330
1
100
AcDbSymbolTableRecord
100
AcDbBlockTableRecord
  2
*D26
340
0
  0
BLOCK_RECORD
  5
AF6
330
1
100
AcDbSymbolTableRecord
100
AcDbBlockTableRecord
  2
*D27
340
0
  0
BLOCK_RECORD
  5
B0E
330
1
100
AcDbSymbolTableRecord
100
AcDbBlockTableRecord
  2
*D28
340
0
  0
BLOCK_RECORD
  5
B48
330
1
100
AcDbSymbolTableRecord
100
AcDbBlockTableRecord
  2
*D29
340
0
  0
BLOCK_RECORD
  5
B64
330
1
100
AcDbSymbolTableRecord
100
AcDbBlockTableRecord
  2
*D30
340
0
  0
ENDTAB
  0
ENDSEC
  0
SECTION
  2
BLOCKS
  0
BLOCK
  5
D
330
A
100
AcDbEntity
  8
0
100
AcDbBlockBegin
  2
*MODEL_SPACE
 70
     0
 10
0.0
 20
0.0
 30
0.0
  3
*MODEL_SPACE
  1

  0
ENDBLK
  5
E
330
A
100
AcDbEntity
  8
0
100
AcDbBlockEnd
  0
BLOCK
  5
920
330
91E
100
AcDbEntity
 67
     1
  8
0
100
AcDbBlockBegin
  2
*PAPER_SPACE
 70
     0
 10
0.0
 20
0.0
 30
0.0
  3
*PAPER_SPACE
  1

  0
ENDBLK
  5
921
330
91E
100
AcDbEntity
 67
     1
  8
0
100
AcDbBlockEnd
  0
BLOCK
  5
3B0
330
F7
100
AcDbEntity
  8
0
 62
     1
100
AcDbBlockBegin
  2
SE0
 70
     0
 10
0.0
 20
0.0
 30
0.0
  3
SE0
  1

  0
ENDBLK
  5
3B1
330
F7
100
AcDbEntity
  8
0
 62
     1
100
AcDbBlockEnd
  0
BLOCK
  5
4E0
330
FE
100
AcDbEntity
  8
0
 62
     1
100
AcDbBlockBegin
  2
SE2
 70
     0
 10
0.0
 20
0.0
 30
0.0
  3
SE2
  1

  0
ENDBLK
  5
4E1
330
FE
100
AcDbEntity
  8
0
 62
     1
100
AcDbBlockEnd
  0
BLOCK
  5
740
330
105
100
AcDbEntity
  8
0
 62
     1
100
AcDbBlockBegin
  2
SE4
 70
     0
 10
0.0
 20
0.0
 30
0.0
  3
SE4
  1

  0
ENDBLK
  5
741
330
105
100
AcDbEntity
  8
0
 62
     1
100
AcDbBlockEnd
  0
BLOCK
  5
A5A
330
A50
100
AcDbEntity
  8
0
100
AcDbBlockBegin
  2
*D21
 70
     1
 10
0.0
 20
0.0
 30
0.0
  3
*D21
  1

  0
LINE
  5
1155
330
A50
100
AcDbEntity
  8
MEASURE
  6
Continuous
 62
     9
370
    -2
100
AcDbLine
 10
438.689831394858
 20
497.1838003926025
 30
0.0
 11
438.689831394858
 21
584.3140508200502
 31
0.0
  0
LINE
  5
1156
330
A50
100
AcDbEntity
  8
MEASURE
  6
Continuous
 62
     9
370
    -2
100
AcDbLine
 10
818.689831394858
 20
497.1838003926025
 30
0.0
 11
818.689831394858
 21
584.3140508200502
 31
0.0
  0
LINE
  5
1157
330
A50
100
AcDbEntity
  8
MEASURE
  6
Continuous
 62
     9
370
    -2
100
AcDbLine
 10
451.189831394858
 20
574.3140508200501
 30
0.0
 11
806.189831394858
 21
574.3140508200501
 31
0.0
  0
SOLID
  5
1158
330
A50
100
AcDbEntity
  8
MEASURE
  6
Continuous
 62
     9
100
AcDbTrace
 10
451.189831394858
 20
576.3973841533835
 30
0.0
 11
451.189831394858
 21
572.2307174867167
 31
0.0
 12
438.689831394858
 22
574.3140508200501
 32
0.0
 13
438.689831394858
 23
574.3140508200501
 33
0.0
  0
SOLID
  5
1159
330
A50
100
AcDbEntity
  8
MEASURE
  6
Continuous
 62
     9
100
AcDbTrace
 10
806.189831394858
 20
576.3973841533835
 30
0.0
 11
806.189831394858
 21
572.2307174867167
 31
0.0
 12
818.689831394858
 22
574.3140508200501
 32
0.0
 13
818.689831394858
 23
574.3140508200501
 33
0.0
  0
MTEXT
  5
115A
330
A50
100
AcDbEntity
  8
MEASURE
  6
Continuous
 62
     2
100
AcDbMText
 10
628.689831394858
 20
585.5640508200501
 30
0.0
 40
17.5
 41
0.0
 71
     5
 72
     1
  1
\A1;380
  7
AD-STANDARD
 73
     1
 44
1.0
  0
POINT
  5
115B
330
A50
100
AcDbEntity
  8
DEFPOINTS
  6
Continuous
 62
     0
100
AcDbPoint
 10
438.689831394858
 20
492.1838003926025
 30
0.0
  0
POINT
  5
115C
330
A50
100
AcDbEntity
  8
DEFPOINTS
  6
Continuous
 62
     0
100
AcDbPoint
 10
818.689831394858
 20
492.1838003926025
 30
0.0
  0
POINT
  5
115D
330
A50
100
AcDbEntity
  8
DEFPOINTS
  6
Continuous
 62
     0
100
AcDbPoint
 10
818.689831394858
 20
574.3140508200501
 30
0.0
  0
ENDBLK
  5
A5B
330
A50
100
AcDbEntity
  8
0
100
AcDbBlockEnd
  0
BLOCK
  5
A72
330
A68
100
AcDbEntity
  8
0
100
AcDbBlockBegin
  2
*D22
 70
     1
 10
0.0
 20
0.0
 30
0.0
  3
*D22
  1

  0
LINE
  5
1167
330
A68
100
AcDbEntity
  8
MEASURE
  6
Continuous
 62
     9
370
    -2
100
AcDbLine
 10
478.6898313946079
 20
386.1838003926025
 30
0.0
 11
478.6898313946079
 21
323.3630910127876
 31
0.0
  0
LINE
  5
1168
330
A68
100
AcDbEntity
  8
MEASURE
  6
Continuous
 62
     9
370
    -2
100
AcDbLine
 10
778.6898313946076
 20
386.1838003926025
 30
0.0
 11
778.6898313946076
 21
323.3630910127876
 31
0.0
  0
LINE
  5
1169
330
A68
100
AcDbEntity
  8
MEASURE
  6
Continuous
 62
     9
370
    -2
100
AcDbLine
 10
491.1898313946079
 20
333.3630910127876
 30
0.0
 11
766.1898313946076
 21
333.3630910127876
 31
0.0
  0
SOLID
  5
116A
330
A68
100
AcDbEntity
  8
MEASURE
  6
Continuous
 62
     9
100
AcDbTrace
 10
491.1898313946079
 20
335.4464243461209
 30
0.0
 11
491.1898313946079
 21
331.2797576794543
 31
0.0
 12
478.6898313946079
 22
333.3630910127876
 32
0.0
 13
478.6898313946079
 23
333.3630910127876
 33
0.0
  0
SOLID
  5
116B
330
A68
100
AcDbEntity
  8
MEASURE
  6
Continuous
 62
     9
100
AcDbTrace
 10
766.1898313946076
 20
335.4464243461209
 30
0.0
 11
766.1898313946076
 21
331.2797576794543
 31
0.0
 12
778.6898313946076
 22
333.3630910127876
 32
0.0
 13
778.6898313946076
 23
333.3630910127876
 33
0.0
  0
MTEXT
  5
116C
330
A68
100
AcDbEntity
  8
MEASURE
  6
Continuous
 62
     2
100
AcDbMText
 10
628.6898313946078
 20
344.6130910127876
 30
0.0
 40
17.5
 41
0.0
 71
     5
 72
     1
  1
\A1;300
  7
AD-STANDARD
 73
     1
 44
1.0
  0
POINT
  5
116D
330
A68
100
AcDbEntity
  8
DEFPOINTS
  6
Continuous
 62
     0
100
AcDbPoint
 10
478.6898313946079
 20
391.1838003926025
 30
0.0
  0
POINT
  5
116E
330
A68
100
AcDbEntity
  8
DEFPOINTS
  6
Continuous
 62
     0
100
AcDbPoint
 10
778.6898313946076
 20
391.1838003926025
 30
0.0
  0
POINT
  5
116F
330
A68
100
AcDbEntity
  8
DEFPOINTS
  6
Continuous
 62
     0
100
AcDbPoint
 10
778.6898313946076
 20
333.3630910127876
 30
0.0
  0
ENDBLK
  5
A73
330
A68
100
AcDbEntity
  8
0
100
AcDbBlockEnd
  0
BLOCK
  5
A8A
330
A80
100
AcDbEntity
  8
0
100
AcDbBlockBegin
  2
*D23
 70
     1
 10
0.0
 20
0.0
 30
0.0
  3
*D23
  1

  0
LINE
  5
115E
330
A80
100
AcDbEntity
  8
MEASURE
  6
Continuous
 62
     9
370
    -2
100
AcDbLine
 10
513.68983139466
 20
795.8769191878168
 30
0.0
 11
513.68983139466
 21
704.6517902925049
 31
0.0
  0
LINE
  5
115F
330
A80
100
AcDbEntity
  8
MEASURE
  6
Continuous
 62
     9
370
    -2
100
AcDbLine
 10
743.6898313948579
 20
795.7897634451019
 30
0.0
 11
743.6898313948579
 21
704.6517902925049
 31
0.0
  0
LINE
  5
1160
330
A80
100
AcDbEntity
  8
MEASURE
  6
Continuous
 62
     9
370
    -2
100
AcDbLine
 10
526.18983139466
 20
714.6517902925049
 30
0.0
 11
731.1898313948579
 21
714.6517902925049
 31
0.0
  0
SOLID
  5
1161
330
A80
100
AcDbEntity
  8
MEASURE
  6
Continuous
 62
     9
100
AcDbTrace
 10
526.18983139466
 20
716.7351236258383
 30
0.0
 11
526.18983139466
 21
712.5684569591716
 31
0.0
 12
513.68983139466
 22
714.6517902925049
 32
0.0
 13
513.68983139466
 23
714.6517902925049
 33
0.0
  0
SOLID
  5
1162
330
A80
100
AcDbEntity
  8
MEASURE
  6
Continuous
 62
     9
100
AcDbTrace
 10
731.1898313948579
 20
716.7351236258383
 30
0.0
 11
731.1898313948579
 21
712.5684569591716
 31
0.0
 12
743.6898313948579
 22
714.6517902925049
 32
0.0
 13
743.6898313948579
 23
714.6517902925049
 33
0.0
  0
MTEXT
  5
1163
330
A80
100
AcDbEntity
  8
MEASURE
  6
Continuous
 62
     2
100
AcDbMText
 10
628.689831394759
 20
725.901790292505
 30
0.0
 40
17.5
 41
0.0
 71
     5
 72
     1
  1
\A1;230
  7
AD-STANDARD
 73
     1
 44
1.0
  0
POINT
  5
1164
330
A80
100
AcDbEntity
  8
DEFPOINTS
  6
Continuous
 62
     0
100
AcDbPoint
 10
513.68983139466
 20
800.8769191878169
 30
0.0
  0
POINT
  5
1165
330
A80
100
AcDbEntity
  8
DEFPOINTS
  6
Continuous
 62
     0
100
AcDbPoint
 10
743.6898313948579
 20
800.7897634451019
 30
0.0
  0
POINT
  5
1166
330
A80
100
AcDbEntity
  8
DEFPOINTS
  6
Continuous
 62
     0
100
AcDbPoint
 10
743.6898313948579
 20
714.6517902925049
 30
0.0
  0
ENDBLK
  5
A8B
330
A80
100
AcDbEntity
  8
0
100
AcDbBlockEnd
  0
BLOCK
  5
AA2
330
A98
100
AcDbEntity
  8
0
100
AcDbBlockBegin
  2
*D24
 70
     1
 10
0.0
 20
0.0
 30
0.0
  3
*D24
  1

  0
LINE
  5
1170
330
A98
100
AcDbEntity
  8
MEASURE
  6
Continuous
 62
     9
370
    -2
100
AcDbLine
 10
795.6898313948579
 20
386.1838003926024
 30
0.0
 11
984.595160414943
 21
386.1838003926024
 31
0.0
  0
LINE
  5
1171
330
A98
100
AcDbEntity
  8
MEASURE
  6
Continuous
 62
     9
370
    -2
100
AcDbLine
 10
812.1898313948578
 20
503.6838003926026
 30
0.0
 11
984.595160414943
 21
503.6838003926025
 31
0.0
  0
LINE
  5
1172
330
A98
100
AcDbEntity
  8
MEASURE
  6
Continuous
 62
     9
370
    -2
100
AcDbLine
 10
974.5951604149428
 20
398.6838003926024
 30
0.0
 11
974.5951604149428
 21
491.1838003926025
 31
0.0
  0
SOLID
  5
1173
330
A98
100
AcDbEntity
  8
MEASURE
  6
Continuous
 62
     9
100
AcDbTrace
 10
972.5118270816095
 20
398.6838003926024
 30
0.0
 11
976.6784937482762
 21
398.6838003926024
 31
0.0
 12
974.5951604149428
 22
386.1838003926024
 32
0.0
 13
974.5951604149428
 23
386.1838003926024
 33
0.0
  0
SOLID
  5
1174
330
A98
100
AcDbEntity
  8
MEASURE
  6
Continuous
 62
     9
100
AcDbTrace
 10
972.5118270816095
 20
491.1838003926025
 30
0.0
 11
976.6784937482762
 21
491.1838003926025
 31
0.0
 12
974.5951604149428
 22
503.6838003926025
 32
0.0
 13
974.5951604149428
 23
503.6838003926025
 33
0.0
  0
MTEXT
  5
1175
330
A98
100
AcDbEntity
  8
MEASURE
  6
Continuous
 62
     2
100
AcDbMText
 10
963.3451604149428
 20
444.9338003926026
 30
0.0
 40
17.5
 41
0.0
 71
     5
 72
     1
  1
\A1;118
  7
AD-STANDARD
 11
0.0000000000000001
 21
1.0
 31
0.0
 73
     1
 44
1.0
  0
POINT
  5
1176
330
A98
100
AcDbEntity
  8
DEFPOINTS
  6
Continuous
 62
     0
100
AcDbPoint
 10
790.689831394858
 20
386.1838003926024
 30
0.0
  0
POINT
  5
1177
330
A98
100
AcDbEntity
  8
DEFPOINTS
  6
Continuous
 62
     0
100
AcDbPoint
 10
807.189831394858
 20
503.6838003926026
 30
0.0
  0
POINT
  5
1178
330
A98
100
AcDbEntity
  8
DEFPOINTS
  6
Continuous
 62
     0
100
AcDbPoint
 10
974.5951604149428
 20
503.6838003926025
 30
0.0
  0
ENDBLK
  5
AA3
330
A98
100
AcDbEntity
  8
0
100
AcDbBlockEnd
  0
BLOCK
  5
ABC
330
AB0
100
AcDbEntity
  8
0
100
AcDbBlockBegin
  2
*D25
 70
     1
 10
0.0
 20
0.0
 30
0.0
  3
*D25
  1

  0
LINE
  5
1179
330
AB0
100
AcDbEntity
  8
MEASURE
  6
Continuous
 62
     9
370
    -2
100
AcDbLine
 10
795.6898313948579
 20
386.1838003926024
 30
0.0
 11
949.1875722547373
 21
386.1838003926024
 31
0.0
  0
LINE
  5
117A
330
AB0
100
AcDbEntity
  8
MEASURE
  6
Continuous
 62
     9
370
    -2
100
AcDbLine
 10
800.6898313948578
 20
415.1838003926024
 30
0.0
 11
949.1875722547373
 21
415.1838003926023
 31
0.0
  0
LINE
  5
117B
330
AB0
100
AcDbEntity
  8
MEASURE
  6
Continuous
 62
     9
370
    -2
100
AcDbLine
 10
939.1875722547371
 20
373.6838003926024
 30
0.0
 11
939.1875722547371
 21
361.1838003926024
 31
0.0
  0
LINE
  5
117C
330
AB0
100
AcDbEntity
  8
MEASURE
  6
Continuous
 62
     9
370
    -2
100
AcDbLine
 10
939.1875722547371
 20
427.6838003926023
 30
0.0
 11
939.1875722547371
 21
440.1838003926023
 31
0.0
  0
LINE
  5
117D
330
AB0
100
AcDbEntity
  8
MEASURE
  6
Continuous
 62
     9
370
    -2
100
AcDbLine
 10
939.1875722547371
 20
386.1838003926024
 30
0.0
 11
939.1875722547371
 21
415.1838003926023
 31
0.0
  0
SOLID
  5
117E
330
AB0
100
AcDbEntity
  8
MEASURE
  6
Continuous
 62
     9
100
AcDbTrace
 10
937.1042389214037
 20
373.6838003926024
 30
0.0
 11
941.2709055880705
 21
373.6838003926024
 31
0.0
 12
939.1875722547371
 22
386.1838003926024
 32
0.0
 13
939.1875722547371
 23
386.1838003926024
 33
0.0
  0
SOLID
  5
117F
330
AB0
100
AcDbEntity
  8
MEASURE
  6
Continuous
 62
     9
100
AcDbTrace
 10
937.1042389214037
 20
427.6838003926023
 30
0.0
 11
941.2709055880705
 21
427.6838003926023
 31
0.0
 12
939.1875722547371
 22
415.1838003926023
 32
0.0
 13
939.1875722547371
 23
415.1838003926023
 33
0.0
  0
MTEXT
  5
1180
330
AB0
100
AcDbEntity
  8
MEASURE
  6
Continuous
 62
     2
100
AcDbMText
 10
927.9375722547371
 20
400.6838003926025
 30
0.0
 40
17.5
 41
0.0
 71
     5
 72
     1
  1
\A1;29
  7
AD-STANDARD
 11
0.0000000000000001
 21
1.0
 31
0.0
 73
     1
 44
1.0
  0
POINT
  5
1181
330
AB0
100
AcDbEntity
  8
DEFPOINTS
  6
Continuous
 62
     0
100
AcDbPoint
 10
790.689831394858
 20
386.1838003926024
 30
0.0
  0
POINT
  5
1182
330
AB0
100
AcDbEntity
  8
DEFPOINTS
  6
Continuous
 62
     0
100
AcDbPoint
 10
795.6898313948579
 20
415.1838003926024
 30
0.0
  0
POINT
  5
1183
330
AB0
100
AcDbEntity
  8
DEFPOINTS
  6
Continuous
 62
     0
100
AcDbPoint
 10
939.1875722547371
 20
415.1838003926023
 30
0.0
  0
ENDBLK
  5
ABD
330
AB0
100
AcDbEntity
  8
0
100
AcDbBlockEnd
  0
BLOCK
  5
AD6
330
ACC
100
AcDbEntity
  8
0
100
AcDbBlockBegin
  2
*D26
 70
     1
 10
0.0
 20
0.0
 30
0.0
  3
*D26
  1

  0
LINE
  5
1184
330
ACC
100
AcDbEntity
  8
MEASURE
  6
Continuous
 62
     9
370
    -2
100
AcDbLine
 10
800.6898313948578
 20
415.1838003926024
 30
0.0
 11
949.1875722547373
 21
415.1838003926023
 31
0.0
  0
LINE
  5
1185
330
ACC
100
AcDbEntity
  8
MEASURE
  6
Continuous
 62
     9
370
    -2
100
AcDbLine
 10
812.1898313948578
 20
503.6838003926026
 30
0.0
 11
949.1875722547373
 21
503.6838003926025
 31
0.0
  0
LINE
  5
1186
330
ACC
100
AcDbEntity
  8
MEASURE
  6
Continuous
 62
     9
370
    -2
100
AcDbLine
 10
939.1875722547371
 20
427.6838003926023
 30
0.0
 11
939.1875722547371
 21
491.1838003926025
 31
0.0
  0
SOLID
  5
1187
330
ACC
100
AcDbEntity
  8
MEASURE
  6
Continuous
 62
     9
100
AcDbTrace
 10
937.1042389214037
 20
427.6838003926023
 30
0.0
 11
941.2709055880705
 21
427.6838003926023
 31
0.0
 12
939.1875722547371
 22
415.1838003926023
 32
0.0
 13
939.1875722547371
 23
415.1838003926023
 33
0.0
  0
SOLID
  5
1188
330
ACC
100
AcDbEntity
  8
MEASURE
  6
Continuous
 62
     9
100
AcDbTrace
 10
937.1042389214037
 20
491.1838003926025
 30
0.0
 11
941.2709055880705
 21
491.1838003926025
 31
0.0
 12
939.1875722547371
 22
503.6838003926025
 32
0.0
 13
939.1875722547371
 23
503.6838003926025
 33
0.0
  0
MTEXT
  5
1189
330
ACC
100
AcDbEntity
  8
MEASURE
  6
Continuous
 62
     2
100
AcDbMText
 10
927.9375722547371
 20
459.4338003926026
 30
0.0
 40
17.5
 41
0.0
 71
     5
 72
     1
  1
\A1;89
  7
AD-STANDARD
 11
0.0000000000000001
 21
1.0
 31
0.0
 73
     1
 44
1.0
  0
POINT
  5
118A
330
ACC
100
AcDbEntity
  8
DEFPOINTS
  6
Continuous
 62
     0
100
AcDbPoint
 10
795.6898313948579
 20
415.1838003926024
 30
0.0
  0
POINT
  5
118B
330
ACC
100
AcDbEntity
  8
DEFPOINTS
  6
Continuous
 62
     0
100
AcDbPoint
 10
807.189831394858
 20
503.6838003926026
 30
0.0
  0
POINT
  5
118C
330
ACC
100
AcDbEntity
  8
DEFPOINTS
  6
Continuous
 62
     0
100
AcDbPoint
 10
939.1875722547371
 20
503.6838003926025
 30
0.0
  0
ENDBLK
  5
AD7
330
ACC
100
AcDbEntity
  8
0
100
AcDbBlockEnd
  0
BLOCK
  5
B00
330
AF6
100
AcDbEntity
  8
0
100
AcDbBlockBegin
  2
*D27
 70
     1
 10
0.0
 20
0.0
 30
0.0
  3
*D27
  1

  0
LINE
  5
118D
330
AF6
100
AcDbEntity
  8
MEASURE
  6
Continuous
 62
     9
370
    -2
100
AcDbLine
 10
1343.620223590858
 20
386.1838003926025
 30
0.0
 11
1343.620223590858
 21
323.3630910127876
 31
0.0
  0
LINE
  5
118E
330
AF6
100
AcDbEntity
  8
MEASURE
  6
Continuous
 62
     9
370
    -2
100
AcDbLine
 10
1563.620223590858
 20
386.1838003926025
 30
0.0
 11
1563.620223590858
 21
323.3630910127876
 31
0.0
  0
LINE
  5
118F
330
AF6
100
AcDbEntity
  8
MEASURE
  6
Continuous
 62
     9
370
    -2
100
AcDbLine
 10
1356.120223590858
 20
333.3630910127876
 30
0.0
 11
1551.120223590858
 21
333.3630910127876
 31
0.0
  0
SOLID
  5
1190
330
AF6
100
AcDbEntity
  8
MEASURE
  6
Continuous
 62
     9
100
AcDbTrace
 10
1356.120223590858
 20
335.4464243461209
 30
0.0
 11
1356.120223590858
 21
331.2797576794543
 31
0.0
 12
1343.620223590858
 22
333.3630910127876
 32
0.0
 13
1343.620223590858
 23
333.3630910127876
 33
0.0
  0
SOLID
  5
1191
330
AF6
100
AcDbEntity
  8
MEASURE
  6
Continuous
 62
     9
100
AcDbTrace
 10
1551.120223590858
 20
335.4464243461209
 30
0.0
 11
1551.120223590858
 21
331.2797576794543
 31
0.0
 12
1563.620223590858
 22
333.3630910127876
 32
0.0
 13
1563.620223590858
 23
333.3630910127876
 33
0.0
  0
MTEXT
  5
1192
330
AF6
100
AcDbEntity
  8
MEASURE
  6
Continuous
 62
     2
100
AcDbMText
 10
1453.620223590858
 20
344.6130910127876
 30
0.0
 40
17.5
 41
0.0
 71
     5
 72
     1
  1
\A1;220
  7
AD-STANDARD
 73
     1
 44
1.0
  0
POINT
  5
1193
330
AF6
100
AcDbEntity
  8
DEFPOINTS
  6
Continuous
 62
     0
100
AcDbPoint
 10
1343.620223590858
 20
391.1838003926025
 30
0.0
  0
POINT
  5
1194
330
AF6
100
AcDbEntity
  8
DEFPOINTS
  6
Continuous
 62
     0
100
AcDbPoint
 10
1563.620223590858
 20
391.1838003926025
 30
0.0
  0
POINT
  5
1195
330
AF6
100
AcDbEntity
  8
DEFPOINTS
  6
Continuous
 62
     0
100
AcDbPoint
 10
1563.620223590858
 20
333.3630910127876
 30
0.0
  0
ENDBLK
  5
B01
330
AF6
100
AcDbEntity
  8
0
100
AcDbBlockEnd
  0
BLOCK
  5
B18
330
B0E
100
AcDbEntity
  8
0
100
AcDbBlockBegin
  2
*D28
 70
     1
 10
0.0
 20
0.0
 30
0.0
  3
*D28
  1

  0
LINE
  5
1196
330
B0E
100
AcDbEntity
  8
MEASURE
  6
Continuous
 62
     9
370
    -2
100
AcDbLine
 10
1140.195640210903
 20
481.6062485134773
 30
0.0
 11
1140.195640210903
 21
584.3140508200502
 31
0.0
  0
LINE
  5
1197
330
B0E
100
AcDbEntity
  8
MEASURE
  6
Continuous
 62
     9
370
    -2
100
AcDbLine
 10
1284.643871434436
 20
494.2438312121057
 30
0.0
 11
1284.643871434436
 21
584.3140508200502
 31
0.0
  0
LINE
  5
1198
330
B0E
100
AcDbEntity
  8
MEASURE
  6
Continuous
 62
     9
370
    -2
100
AcDbLine
 10
1152.695640210903
 20
574.3140508200501
 30
0.0
 11
1272.143871434436
 21
574.3140508200501
 31
0.0
  0
SOLID
  5
1199
330
B0E
100
AcDbEntity
  8
MEASURE
  6
Continuous
 62
     9
100
AcDbTrace
 10
1152.695640210903
 20
576.3973841533835
 30
0.0
 11
1152.695640210903
 21
572.2307174867167
 31
0.0
 12
1140.195640210903
 22
574.3140508200501
 32
0.0
 13
1140.195640210903
 23
574.3140508200501
 33
0.0
  0
SOLID
  5
119A
330
B0E
100
AcDbEntity
  8
MEASURE
  6
Continuous
 62
     9
100
AcDbTrace
 10
1272.143871434436
 20
576.3973841533835
 30
0.0
 11
1272.143871434436
 21
572.2307174867167
 31
0.0
 12
1284.643871434436
 22
574.3140508200501
 32
0.0
 13
1284.643871434436
 23
574.3140508200501
 33
0.0
  0
MTEXT
  5
119B
330
B0E
100
AcDbEntity
  8
MEASURE
  6
Continuous
 62
     2
100
AcDbMText
 10
1212.419755822669
 20
590.1473841533835
 30
0.0
 40
17.5
 41
0.0
 71
     5
 72
     1
  1
\A1;(144)
  7
AD-STANDARD
 73
     1
 44
1.0
  0
POINT
  5
119C
330
B0E
100
AcDbEntity
  8
DEFPOINTS
  6
Continuous
 62
     0
100
AcDbPoint
 10
1140.195640210903
 20
476.6062485134773
 30
0.0
  0
POINT
  5
119D
330
B0E
100
AcDbEntity
  8
DEFPOINTS
  6
Continuous
 62
     0
100
AcDbPoint
 10
1284.643871434436
 20
489.2438312121058
 30
0.0
  0
POINT
  5
119E
330
B0E
100
AcDbEntity
  8
DEFPOINTS
  6
Continuous
 62
     0
100
AcDbPoint
 10
1284.643871434436
 20
574.3140508200501
 30
0.0
  0
ENDBLK
  5
B19
330
B0E
100
AcDbEntity
  8
0
100
AcDbBlockEnd
  0
BLOCK
  5
B54
330
B48
100
AcDbEntity
  8
0
100
AcDbBlockBegin
  2
*D29
 70
     1
 10
0.0
 20
0.0
 30
0.0
  3
*D29
  1

  0
LINE
  5
119F
330
B48
100
AcDbEntity
  8
MEASURE
  6
Continuous
 62
     9
370
    -2
100
AcDbLine
 10
1284.643871434436
 20
494.2438312121057
 30
0.0
 11
1284.643871434436
 21
584.3140508200502
 31
0.0
  0
LINE
  5
11A0
330
B48
100
AcDbEntity
  8
MEASURE
  6
Continuous
 62
     9
370
    -2
100
AcDbLine
 10
1303.620223590857
 20
497.1838003926025
 30
0.0
 11
1303.620223590857
 21
584.3140508200502
 31
0.0
  0
LINE
  5
11A1
330
B48
100
AcDbEntity
  8
MEASURE
  6
Continuous
 62
     9
370
    -2
100
AcDbLine
 10
1272.143871434436
 20
574.3140508200501
 30
0.0
 11
1259.643871434436
 21
574.3140508200501
 31
0.0
  0
LINE
  5
11A2
330
B48
100
AcDbEntity
  8
MEASURE
  6
Continuous
 62
     9
370
    -2
100
AcDbLine
 10
1316.120223590857
 20
574.3140508200501
 30
0.0
 11
1328.620223590857
 21
574.3140508200501
 31
0.0
  0
LINE
  5
11A3
330
B48
100
AcDbEntity
  8
MEASURE
  6
Continuous
 62
     9
370
    -2
100
AcDbLine
 10
1284.643871434436
 20
574.3140508200501
 30
0.0
 11
1303.620223590857
 21
574.3140508200501
 31
0.0
  0
SOLID
  5
11A4
330
B48
100
AcDbEntity
  8
MEASURE
  6
Continuous
 62
     9
100
AcDbTrace
 10
1272.143871434436
 20
576.3973841533835
 30
0.0
 11
1272.143871434436
 21
572.2307174867167
 31
0.0
 12
1284.643871434436
 22
574.3140508200501
 32
0.0
 13
1284.643871434436
 23
574.3140508200501
 33
0.0
  0
SOLID
  5
11A5
330
B48
100
AcDbEntity
  8
MEASURE
  6
Continuous
 62
     9
100
AcDbTrace
 10
1316.120223590857
 20
576.3973841533835
 30
0.0
 11
1316.120223590857
 21
572.2307174867167
 31
0.0
 12
1303.620223590857
 22
574.3140508200501
 32
0.0
 13
1303.620223590857
 23
574.3140508200501
 33
0.0
  0
MTEXT
  5
11A6
330
B48
100
AcDbEntity
  8
MEASURE
  6
Continuous
 62
     2
100
AcDbMText
 10
1294.132047512646
 20
590.1473841533835
 30
0.0
 40
17.5
 41
0.0
 71
     5
 72
     1
  1
\A1;(19)
  7
AD-STANDARD
 73
     1
 44
1.0
  0
POINT
  5
11A7
330
B48
100
AcDbEntity
  8
DEFPOINTS
  6
Continuous
 62
     0
100
AcDbPoint
 10
1284.643871434436
 20
489.2438312121058
 30
0.0
  0
POINT
  5
11A8
330
B48
100
AcDbEntity
  8
DEFPOINTS
  6
Continuous
 62
     0
100
AcDbPoint
 10
1303.620223590857
 20
492.1838003926025
 30
0.0
  0
POINT
  5
11A9
330
B48
100
AcDbEntity
  8
DEFPOINTS
  6
Continuous
 62
     0
100
AcDbPoint
 10
1303.620223590857
 20
574.3140508200501
 30
0.0
  0
ENDBLK
  5
B55
330
B48
100
AcDbEntity
  8
0
100
AcDbBlockEnd
  0
BLOCK
  5
B6E
330
B64
100
AcDbEntity
  8
0
100
AcDbBlockBegin
  2
*D30
 70
     1
 10
0.0
 20
0.0
 30
0.0
  3
*D30
  1

  0
LINE
  5
11AA
330
B64
100
AcDbEntity
  8
MEASURE
  6
Continuous
 62
     9
370
    -2
100
AcDbLine
 10
1303.620223590857
 20
497.1838003926025
 30
0.0
 11
1303.620223590857
 21
584.3140508200502
 31
0.0
  0
LINE
  5
11AB
330
B64
100
AcDbEntity
  8
MEASURE
  6
Continuous
 62
     9
370
    -2
100
AcDbLine
 10
1603.620223590858
 20
497.1838003926025
 30
0.0
 11
1603.620223590858
 21
584.3140508200502
 31
0.0
  0
LINE
  5
11AC
330
B64
100
AcDbEntity
  8
MEASURE
  6
Continuous
 62
     9
370
    -2
100
AcDbLine
 10
1316.120223590857
 20
574.3140508200501
 30
0.0
 11
1591.120223590857
 21
574.3140508200501
 31
0.0
  0
SOLID
  5
11AD
330
B64
100
AcDbEntity
  8
MEASURE
  6
Continuous
 62
     9
100
AcDbTrace
 10
1316.120223590857
 20
576.3973841533835
 30
0.0
 11
1316.120223590857
 21
572.2307174867167
 31
0.0
 12
1303.620223590857
 22
574.3140508200501
 32
0.0
 13
1303.620223590857
 23
574.3140508200501
 33
0.0
  0
SOLID
  5
11AE
330
B64
100
AcDbEntity
  8
MEASURE
  6
Continuous
 62
     9
100
AcDbTrace
 10
1591.120223590857
 20
576.3973841533835
 30
0.0
 11
1591.120223590857
 21
572.2307174867167
 31
0.0
 12
1603.620223590858
 22
574.3140508200501
 32
0.0
 13
1603.620223590858
 23
574.3140508200501
 33
0.0
  0
MTEXT
  5
11AF
330
B64
100
AcDbEntity
  8
MEASURE
  6
Continuous
 62
     2
100
AcDbMText
 10
1453.620223590857
 20
585.5640508200501
 30
0.0
 40
17.5
 41
0.0
 71
     5
 72
     1
  1
\A1;300
  7
AD-STANDARD
 73
     1
 44
1.0
  0
POINT
  5
11B0
330
B64
100
AcDbEntity
  8
DEFPOINTS
  6
Continuous
 62
     0
100
AcDbPoint
 10
1303.620223590857
 20
492.1838003926025
 30
0.0
  0
POINT
  5
11B1
330
B64
100
AcDbEntity
  8
DEFPOINTS
  6
Continuous
 62
     0
100
AcDbPoint
 10
1603.620223590858
 20
492.1838003926025
 30
0.0
  0
POINT
  5
11B2
330
B64
100
AcDbEntity
  8
DEFPOINTS
  6
Continuous
 62
     0
100
AcDbPoint
 10
1603.620223590858
 20
574.3140508200501
 30
0.0
  0
ENDBLK
  5
B6F
330
B64
100
AcDbEntity
  8
0
100
AcDbBlockEnd
  0
ENDSEC
  0
SECTION
  2
ENTITIES
  0
TEXT
  5
EA
330
A
100
AcDbEntity
  8
NOTE
  6
Continuous
100
AcDbText
 10
1756.839066294373
 20
207.2181922060581
 30
0.0
 40
15.0
  1
FG30KBM
  7
AD-STANDARD
 11
1756.839066294373
 21
222.2181922060581
 31
0.0
100
AcDbText
 73
     3
  0
TEXT
  5
EB
330
A
100
AcDbEntity
  8
NOTE
  6
Continuous
100
AcDbText
 10
1756.839066294373
 20
185.2669726935582
 30
0.0
 40
15.0
  1
FG60KBM
  7
AD-STANDARD
 11
1756.839066294373
 21
200.2669726935581
 31
0.0
100
AcDbText
 73
     3
  0
TEXT
  5
EC
330
A
100
AcDbEntity
  8
NOTE
  6
Continuous
100
AcDbText
 10
1756.839066294373
 20
163.3157531815581
 30
0.0
 40
15.0
  1
FG150KBM
  7
AD-STANDARD
 11
1756.839066294373
 21
178.3157531815581
 31
0.0
100
AcDbText
 73
     3
  0
INSERT
  5
FD
330
A
100
AcDbEntity
  8
0
 62
     0
100
AcDbBlockReference
  2
SE0
 10
0.0
 20
0.0
 30
0.0
  0
INSERT
  5
104
330
A
100
AcDbEntity
  8
0
 62
     0
100
AcDbBlockReference
  2
SE2
 10
0.0
 20
0.0
 30
0.0
  0
INSERT
  5
10B
330
A
100
AcDbEntity
  8
0
 62
     0
100
AcDbBlockReference
  2
SE4
 10
0.0
 20
0.0
 30
0.0
  0
LWPOLYLINE
  5
860
330
A
100
AcDbEntity
  8
0
  6
Continuous
100
AcDbPolyline
 90
        4
 70
     1
 43
0.0
 10
0.0
 20
0.0
 10
2100.0
 20
-0.000000000000071
 10
2100.0
 20
1485.0
 10
0.0
 20
1485.0
  0
DIMENSION
  5
A4F
330
A
100
AcDbEntity
  8
MEASURE
  6
Continuous
100
AcDbDimension
  2
*D21
 10
818.689831394858
 20
574.3140508200501
 30
0.0
 11
628.689831394858
 21
585.5640508200501
 31
0.0
 70
    32
 71
     5
 42
380.0
  3
AD-STANDARD
100
AcDbAlignedDimension
 13
438.689831394858
 23
492.1838003926025
 33
0.0
 14
818.689831394858
 24
492.1838003926025
 34
0.0
100
AcDbRotatedDimension
1001
ACAD
1000
DSTYLE
1002
{
1070
    40
1040
5.0
1002
}
  0
DIMENSION
  5
A67
330
A
100
AcDbEntity
  8
MEASURE
  6
Continuous
100
AcDbDimension
  2
*D22
 10
778.6898313946076
 20
333.3630910127876
 30
0.0
 11
628.6898313946078
 21
344.6130910127876
 31
0.0
 70
    32
 71
     5
 42
299.9999999999996
  3
AD-STANDARD
100
AcDbAlignedDimension
 13
478.6898313946079
 23
391.1838003926025
 33
0.0
 14
778.6898313946076
 24
391.1838003926025
 34
0.0
100
AcDbRotatedDimension
1001
ACAD
1000
DSTYLE
1002
{
1070
    40
1040
5.0
1002
}
  0
DIMENSION
  5
A7F
330
A
100
AcDbEntity
  8
MEASURE
  6
Continuous
100
AcDbDimension
  2
*D23
 10
743.6898313948579
 20
714.6517902925049
 30
0.0
 11
628.689831394759
 21
725.901790292505
 31
0.0
 70
    32
 71
     5
 42
230.0000000001979
  3
AD-STANDARD
100
AcDbAlignedDimension
 13
513.68983139466
 23
800.8769191878169
 33
0.0
 14
743.6898313948579
 24
800.7897634451019
 34
0.0
100
AcDbRotatedDimension
1001
ACAD
1000
DSTYLE
1002
{
1070
    40
1040
5.0
1002
}
  0
DIMENSION
  5
A97
330
A
100
AcDbEntity
  8
MEASURE
  6
Continuous
100
AcDbDimension
  2
*D24
 10
974.5951604149428
 20
503.6838003926025
 30
0.0
 11
963.3451604149428
 21
444.9338003926026
 31
0.0
 70
    32
 71
     5
 42
117.5000000000001
  3
AD-STANDARD
100
AcDbAlignedDimension
 13
790.689831394858
 23
386.1838003926024
 33
0.0
 14
807.189831394858
 24
503.6838003926026
 34
0.0
 50
90.0
100
AcDbRotatedDimension
1001
ACAD
1000
DSTYLE
1002
{
1070
   271
1070
     0
1070
    40
1040
5.0
1002
}
  0
DIMENSION
  5
AAF
330
A
100
AcDbEntity
  8
MEASURE
  6
Continuous
100
AcDbDimension
  2
*D25
 10
939.1875722547371
 20
415.1838003926023
 30
0.0
 11
927.9375722547371
 21
400.6838003926025
 31
0.0
 70
    32
 71
     5
 42
29.0
  3
AD-STANDARD
100
AcDbAlignedDimension
 13
790.689831394858
 23
386.1838003926024
 33
0.0
 14
795.6898313948579
 24
415.1838003926024
 34
0.0
 50
90.0
100
AcDbRotatedDimension
1001
ACAD
1000
DSTYLE
1002
{
1070
    40
1040
5.0
1002
}
  0
DIMENSION
  5
ACB
330
A
100
AcDbEntity
  8
MEASURE
  6
Continuous
100
AcDbDimension
  2
*D26
 10
939.1875722547371
 20
503.6838003926025
 30
0.0
 11
927.9375722547371
 21
459.4338003926026
 31
0.0
 70
    32
 71
     5
 42
88.50000000000012
  3
AD-STANDARD
100
AcDbAlignedDimension
 13
795.6898313948579
 23
415.1838003926024
 33
0.0
 14
807.189831394858
 24
503.6838003926026
 34
0.0
 50
90.0
100
AcDbRotatedDimension
1001
ACAD
1000
DSTYLE
1002
{
1070
   271
1070
     0
1070
   279
1070
     1
1070
    40
1040
5.0
1002
}
  0
DIMENSION
  5
AF5
330
A
100
AcDbEntity
  8
MEASURE
  6
Continuous
100
AcDbDimension
  2
*D27
 10
1563.620223590858
 20
333.3630910127876
 30
0.0
 11
1453.620223590858
 21
344.6130910127876
 31
0.0
 70
    32
 71
     5
 42
220.0
  3
AD-STANDARD
100
AcDbAlignedDimension
 13
1343.620223590858
 23
391.1838003926025
 33
0.0
 14
1563.620223590858
 24
391.1838003926025
 34
0.0
100
AcDbRotatedDimension
1001
ACAD
1000
DSTYLE
1002
{
1070
    40
1040
5.0
1002
}
  0
DIMENSION
  5
B0D
330
A
100
AcDbEntity
  8
MEASURE
  6
Continuous
100
AcDbDimension
  2
*D28
 10
1284.643871434436
 20
574.3140508200501
 30
0.0
 11
1212.419755822669
 21
590.1473841533835
 31
0.0
 70
    32
  1
(<>)
 71
     5
 42
144.4482312235331
  3
AD-STANDARD
100
AcDbAlignedDimension
 13
1140.195640210903
 23
476.6062485134773
 33
0.0
 14
1284.643871434436
 24
489.2438312121058
 34
0.0
100
AcDbRotatedDimension
1001
ACAD
1000
DSTYLE
1002
{
1070
   271
1070
     0
1070
    40
1040
5.0
1002
}
  0
DIMENSION
  5
B47
330
A
100
AcDbEntity
  8
MEASURE
  6
Continuous
100
AcDbDimension
  2
*D29
 10
1303.620223590857
 20
574.3140508200501
 30
0.0
 11
1294.132047512646
 21
574.3140508200501
 31
0.0
 70
   160
  1
(<>)
 71
     5
 42
18.97635215642117
  3
AD-STANDARD
100
AcDbAlignedDimension
 13
1284.643871434436
 23
489.2438312121058
 33
0.0
 14
1303.620223590857
 24
492.1838003926025
 34
0.0
100
AcDbRotatedDimension
1001
ACAD
1000
DSTYLE
1002
{
1070
   271
1070
     0
1070
    40
1040
5.0
1002
}
  0
DIMENSION
  5
B63
330
A
100
AcDbEntity
  8
MEASURE
  6
Continuous
100
AcDbDimension
  2
*D30
 10
1603.620223590858
 20
574.3140508200501
 30
0.0
 11
1453.620223590857
 21
585.5640508200501
 31
0.0
 70
    32
 71
     5
 42
300.0000000000004
  3
AD-STANDARD
100
AcDbAlignedDimension
 13
1303.620223590857
 23
492.1838003926025
 33
0.0
 14
1603.620223590858
 24
492.1838003926025
 34
0.0
100
AcDbRotatedDimension
1001
ACAD
1000
DSTYLE
1002
{
1070
   279
1070
     1
1070
    40
1040
5.0
1002
}
  0
ARC
  5
BB1
330
A
100
AcDbEntity
  8
1
  6
Continuous
100
AcDbCircle
 10
773.689831394858
 20
948.7197449941024
 30
0.0
 40
20.0
100
AcDbArc
 50
270.0
 51
0.0
  0
LINE
  5
BB2
330
A
100
AcDbEntity
  8
1
  6
Continuous
100
AcDbLine
 10
793.6898313948579
 20
953.4084562526018
 30
0.0
 11
793.6898313948579
 21
948.7197449941024
 31
0.0
  0
LINE
  5
BB3
330
A
100
AcDbEntity
  8
1
  6
Continuous
100
AcDbLine
 10
773.689831394858
 20
928.7197449941025
 30
0.0
 11
736.7530112368578
 21
928.7197449941025
 31
0.0
  0
ARC
  5
BB4
330
A
100
AcDbEntity
  8
1
  6
Continuous
100
AcDbCircle
 10
723.6898313948579
 20
948.7197449941024
 30
0.0
 40
20.0
100
AcDbArc
 50
180.0
 51
250.5507665205999
  0
CIRCLE
  5
BB5
330
A
100
AcDbEntity
  8
1
  6
Continuous
100
AcDbCircle
 10
748.6898313948579
 20
940.7197449941021
 30
0.0
 40
3.5
  0
CIRCLE
  5
BB6
330
A
100
AcDbEntity
  8
1
  6
Continuous
100
AcDbCircle
 10
748.6898313948579
 20
940.7197449941021
 30
0.0
 40
8.0
  0
ARC
  5
BB7
330
A
100
AcDbEntity
  8
1
  6
Continuous
100
AcDbCircle
 10
748.6898313948579
 20
940.7197449941021
 30
0.0
 40
8.5
100
AcDbArc
 50
0.0
 51
70.25007720440004
  0
ARC
  5
BB8
330
A
100
AcDbEntity
  8
1
  6
Continuous
100
AcDbCircle
 10
748.6898313948579
 20
940.7197449941021
 30
0.0
 40
8.5
100
AcDbArc
 50
109.7499227955999
 51
0.0
  0
LINE
  5
BC3
330
A
100
AcDbEntity
  8
1
  6
Continuous
100
AcDbLine
 10
773.689831394858
 20
948.7197449941024
 30
0.0
 11
483.6898313948579
 21
948.7197449941024
 31
0.0
  0
LINE
  5
BC4
330
A
100
AcDbEntity
  8
1
  6
Continuous
100
AcDbLine
 10
818.6898313948574
 20
1203.719744994102
 30
0.0
 11
818.6898313948574
 21
993.719744994102
 31
0.0
  0
LINE
  5
BC5
330
A
100
AcDbEntity
  8
1
  6
Continuous
100
AcDbLine
 10
483.6898313948579
 20
1248.719744994102
 30
0.0
 11
773.689831394858
 21
1248.719744994102
 31
0.0
  0
LINE
  5
BC6
330
A
100
AcDbEntity
  8
1
  6
Continuous
100
AcDbLine
 10
438.689831394858
 20
993.719744994102
 30
0.0
 11
438.689831394858
 21
1203.719744994102
 31
0.0
  0
ARC
  5
BC7
330
A
100
AcDbEntity
  8
1
  6
Continuous
100
AcDbCircle
 10
773.689831394858
 20
1203.719744994102
 30
0.0
 40
45.0
100
AcDbArc
 50
0.0
 51
90.0
  0
ARC
  5
BC9
330
A
100
AcDbEntity
  8
1
  6
Continuous
100
AcDbCircle
 10
483.6898313948579
 20
993.719744994102
 30
0.0
 40
45.0
100
AcDbArc
 50
180.0
 51
270.0
  0
ARC
  5
BCA
330
A
100
AcDbEntity
  8
1
  6
Continuous
100
AcDbCircle
 10
483.6898313948579
 20
1203.719744994102
 30
0.0
 40
45.0
100
AcDbArc
 50
90.0
 51
180.0
  0
ARC
  5
BCB
330
A
100
AcDbEntity
  8
1
  6
Continuous
100
AcDbCircle
 10
773.689831394858
 20
993.719744994102
 30
0.0
 40
45.0
100
AcDbArc
 50
270.0
 51
0.0
  0
ARC
  5
BD1
330
A
100
AcDbEntity
  8
1
  6
Continuous
100
AcDbCircle
 10
588.6898313948579
 20
948.219744994102
 30
0.0
 40
2.25
100
AcDbArc
 50
0.0
 51
12.83958840690001
  0
ARC
  5
BD2
330
A
100
AcDbEntity
  8
1
  6
Continuous
100
AcDbCircle
 10
588.6898313948579
 20
948.219744994102
 30
0.0
 40
2.25
100
AcDbArc
 50
167.1604115931
 51
0.0
  0
ARC
  5
BD3
330
A
100
AcDbEntity
  8
1
  6
Continuous
100
AcDbCircle
 10
668.6898313948579
 20
948.219744994102
 30
0.0
 40
2.25
100
AcDbArc
 50
0.0
 51
12.83958840690001
  0
ARC
  5
BD4
330
A
100
AcDbEntity
  8
1
  6
Continuous
100
AcDbCircle
 10
668.6898313948579
 20
948.219744994102
 30
0.0
 40
2.25
100
AcDbArc
 50
167.1604115931
 51
0.0
  0
LINE
  5
BD5
330
A
100
AcDbEntity
  8
1
  6
Continuous
100
AcDbLine
 10
676.6898313948574
 20
929.8610072296021
 30
0.0
 11
676.6898313948574
 21
948.7197449941024
 31
0.0
  0
LINE
  5
BD6
330
A
100
AcDbEntity
  8
1
  6
Continuous
100
AcDbLine
 10
580.6898313948579
 20
948.7197449941024
 30
0.0
 11
580.6898313948579
 21
936.9585852051026
 31
0.0
  0
LINE
  5
BD7
330
A
100
AcDbEntity
  8
1
  6
Continuous
100
AcDbLine
 10
513.6898313948579
 20
917.8054394631026
 30
0.0
 11
513.6898313948579
 21
800.7897634451019
 31
0.0
  0
LINE
  5
BD8
330
A
100
AcDbEntity
  8
1
  6
Continuous
100
AcDbLine
 10
743.6898313948579
 20
800.7897634451019
 30
0.0
 11
743.6898313948579
 21
917.8054394631026
 31
0.0
  0
LINE
  5
BE9
330
A
100
AcDbEntity
  8
1
  6
Continuous
100
AcDbLine
 10
521.6898313948579
 20
805.8124461526023
 30
0.0
 11
521.6898313948579
 21
910.8967529731026
 31
0.0
  0
ELLIPSE
  5
BF1
330
A
100
AcDbEntity
  8
1
  6
Continuous
100
AcDbEllipse
 10
628.6898313943579
 20
2278.672073472101
 30
0.0
 11
1487.000000005966
 21
0.0000137920108665
 31
0.0
210
0.0
220
0.0
230
0.9999999999999996
 40
0.9961946980999996
 41
4.643508605930257
 42
4.781269336359089
  0
ELLIPSE
  5
BF2
330
A
100
AcDbEntity
  8
1
  6
Continuous
100
AcDbEllipse
 10
730.6898313948579
 20
805.8124461526023
 30
0.0
 11
4.999999999999851
 21
0.000000000001943
 31
0.0
210
0.0
220
0.0
230
1.0
 40
0.9961946981000002
 41
4.781269345598311
 42
6.283185307179567
  0
ELLIPSE
  5
BF3
330
A
100
AcDbEntity
  8
1
  6
Continuous
100
AcDbEllipse
 10
526.6898313948579
 20
805.8124461526023
 30
0.0
 11
5.000000000000555
 21
-0.000000000001221
 31
0.0
210
0.0
220
0.0
230
1.0
 40
0.9961946980999998
 41
3.141592653589808
 42
4.643508615170376
  0
LINE
  5
BF4
330
A
100
AcDbEntity
  8
1
  6
Continuous
100
AcDbLine
 10
735.6898313948579
 20
910.8967529731026
 30
0.0
 11
735.6898313948579
 21
805.8124461526023
 31
0.0
  0
ELLIPSE
  5
BFE
330
A
100
AcDbEntity
  8
1
  6
Continuous
100
AcDbEllipse
 10
524.6898313948579
 20
817.2108773756024
 30
0.0
 11
1.499999999999932
 21
0.0000000000034415
 31
0.0
210
0.0
220
0.0
230
1.0
 40
0.9961946981
 41
3.141592653589792
 42
4.712388980382356
  0
LINE
  5
BFF
330
A
100
AcDbEntity
  8
1
  6
Continuous
100
AcDbLine
 10
523.1898313948579
 20
817.2108773756024
 30
0.0
 11
523.1898313948579
 21
910.853178996602
 31
0.0
  0
ELLIPSE
  5
C02
330
A
100
AcDbEntity
  8
1
  6
Continuous
100
AcDbEllipse
 10
526.6898313948579
 20
910.853178996602
 30
0.0
 11
-3.500000000000129
 21
0.000000000001693
 31
0.0
210
0.0
220
0.0
230
1.0
 40
0.9961946980999998
 41
4.712388980385171
 42
6.283185307179584
  0
LINE
  5
C03
330
A
100
AcDbEntity
  8
1
  6
Continuous
100
AcDbLine
 10
526.6898313948579
 20
914.339860439602
 30
0.0
 11
730.6898313948579
 21
914.339860439602
 31
0.0
  0
ELLIPSE
  5
C04
330
A
100
AcDbEntity
  8
1
  6
Continuous
100
AcDbEllipse
 10
730.6898313948579
 20
910.853178996602
 30
0.0
 11
-3.499999999999948
 21
-0.0000000000022205
 31
0.0
210
0.0
220
0.0
230
1.0
 40
0.9961946981000002
 41
3.141592653589792
 42
4.712388980384056
  0
LINE
  5
C05
330
A
100
AcDbEntity
  8
1
  6
Continuous
100
AcDbLine
 10
734.1898313948575
 20
910.853178996602
 30
0.0
 11
734.1898313948575
 21
817.2108773756024
 31
0.0
  0
ELLIPSE
  5
C06
330
A
100
AcDbEntity
  8
1
  6
Continuous
100
AcDbEllipse
 10
732.6898313948579
 20
817.2108773756024
 30
0.0
 11
1.500000000000014
 21
-0.000000000000111
 31
0.0
210
0.0
220
0.0
230
1.0
 40
0.9961946980999998
 41
4.712388980384762
 42
6.283185307179584
  0
LINE
  5
C08
330
A
100
AcDbEntity
  8
1
  6
Continuous
100
AcDbLine
 10
732.6898313948579
 20
815.7165853286025
 30
0.0
 11
524.6898313948579
 21
815.7165853286025
 31
0.0
  0
ELLIPSE
  5
C0D
330
A
100
AcDbEntity
  8
1
  6
Continuous
100
AcDbEllipse
 10
730.6898313948579
 20
805.7688721246021
 30
0.0
 11
3.500000000003542
 21
0.000000000000999
 31
0.0
210
0.0
220
0.0
230
1.0
 40
0.9961946981
 41
4.781097670067381
 42
6.283185307179584
  0
ELLIPSE
  5
C0E
330
A
100
AcDbEntity
  8
1
  6
Continuous
100
AcDbEllipse
 10
628.6898313928574
 20
2278.628499498102
 30
0.0
 11
1485.500000011975
 21
0.0000044904173715
 31
0.0
210
0.0
220
0.0
230
1.0
 40
0.9961946980999998
 41
4.643508612160649
 42
4.781268938099813
  0
ELLIPSE
  5
C0F
330
A
100
AcDbEntity
  8
1
  6
Continuous
100
AcDbEllipse
 10
526.6898313948579
 20
805.7688721756019
 30
0.0
 11
3.500000000001807
 21
-0.0000000000014435
 31
0.0
210
0.0
220
0.0
230
1.0
 40
0.9961946981000002
 41
3.141592653589792
 42
4.643508615170412
  0
LINE
  5
C10
330
A
100
AcDbEntity
  8
1
  6
Continuous
100
AcDbLine
 10
523.1898313948579
 20
805.7688721756019
 30
0.0
 11
523.1898313948579
 21
812.229903885102
 31
0.0
  0
ELLIPSE
  5
C11
330
A
100
AcDbEntity
  8
1
  6
Continuous
100
AcDbEllipse
 10
524.6898313948579
 20
812.229903885102
 30
0.0
 11
-1.500000000000029
 21
-0.000000000001832
 31
0.0
210
0.0
220
0.0
230
1.0
 40
0.9961946980999998
 41
4.712388980383471
 42
6.28318530717836
  0
LINE
  5
C12
330
A
100
AcDbEntity
  8
1
  6
Continuous
100
AcDbLine
 10
524.6898313948579
 20
813.7241959326024
 30
0.0
 11
732.6898313948579
 21
813.7241959326024
 31
0.0
  0
ELLIPSE
  5
C16
330
A
100
AcDbEntity
  8
1
  6
Continuous
100
AcDbEllipse
 10
732.6898313948579
 20
812.229903885102
 30
0.0
 11
-1.500000000000014
 21
-0.000000000001943
 31
0.0
210
0.0
220
0.0
230
1.0
 40
0.9961946980999998
 41
3.141592653589792
 42
4.712388980383398
  0
LINE
  5
C17
330
A
100
AcDbEntity
  8
1
  6
Continuous
100
AcDbLine
 10
734.1898313948575
 20
812.229903885102
 30
0.0
 11
734.1898313948575
 21
805.7688721246021
 31
0.0
  0
ELLIPSE
  5
C1A
330
A
100
AcDbEntity
  8
1
  6
Continuous
100
AcDbEllipse
 10
526.6898313948579
 20
910.983908715602
 30
0.0
 11
-5.000000000000294
 21
0.000000000095396
 31
0.0
210
0.0
220
0.0
230
1.0
 40
0.9961946981
 41
4.712388980403667
 42
5.355890089196538
  0
ELLIPSE
  5
C1B
330
A
100
AcDbEntity
  8
1
  6
Continuous
100
AcDbEllipse
 10
526.6898313948579
 20
910.983908715602
 30
0.0
 11
4.999999999999963
 21
0.00000000001274
 31
0.0
210
0.0
220
0.0
230
1.0
 40
0.9961946981
 41
2.214297435585232
 42
3.141592653589792
  0
ELLIPSE
  5
C1C
330
A
100
AcDbEntity
  8
1
  6
Continuous
100
AcDbEllipse
 10
730.6898313948579
 20
910.983908715602
 30
0.0
 11
4.999999999998809
 21
0.0000000000004995
 31
0.0
210
0.0
220
0.0
230
1.0
 40
0.9961946981
 41
0.0000000000000138
 42
0.9272952180018744
  0
ELLIPSE
  5
C1D
330
A
100
AcDbEntity
  8
1
  6
Continuous
100
AcDbEllipse
 10
730.6898313948579
 20
910.983908715602
 30
0.0
 11
4.999999999998464
 21
-0.0000000001079415
 31
0.0
210
0.0
220
0.0
230
1.0
 40
0.9961946981000002
 41
0.9272952180234636
 42
1.570796326816401
  0
LINE
  5
C1E
330
A
100
AcDbEntity
  8
1
  6
Continuous
100
AcDbLine
 10
730.6898313948579
 20
915.9648822061024
 30
0.0
 11
526.6898313948579
 21
915.9648822061024
 31
0.0
  0
LINE
  5
C20
330
A
100
AcDbEntity
  8
1
  6
Continuous
100
AcDbLine
 10
735.6898313948579
 20
910.8967529731026
 30
0.0
 11
735.6898313948579
 21
910.983908715602
 31
0.0
  0
LINE
  5
C23
330
A
100
AcDbEntity
  8
1
  6
Continuous
100
AcDbLine
 10
521.6898313948579
 20
910.8967529731026
 30
0.0
 11
521.6898313948579
 21
910.983908715602
 31
0.0
  0
LINE
  5
C24
330
A
100
AcDbEntity
  8
1
  6
Continuous
100
AcDbLine
 10
739.4530019963573
 20
800.5251982076025
 30
0.0
 11
739.4530019963573
 21
914.9686875081027
 31
0.0
  0
ARC
  5
C26
330
A
100
AcDbEntity
  8
1
  6
Continuous
100
AcDbCircle
 10
731.0741660363579
 20
800.5182650501019
 30
0.0
 40
8.378838828499993
100
AcDbArc
 50
345.4543426155
 51
0.047409995399965
  0
ARC
  5
C28
330
A
100
AcDbEntity
  8
1
  6
Continuous
100
AcDbCircle
 10
730.9897162813578
 20
800.2333827641026
 30
0.0
 40
8.3942875635
100
AcDbArc
 50
274.9978856843999
 51
347.4816921502
  0
ARC
  5
C29
330
A
100
AcDbEntity
  8
1
  6
Continuous
100
AcDbCircle
 10
628.6898313948579
 20
2199.220131774602
 30
0.0
 40
1411.1155066655
100
AcDbArc
 50
265.812880071
 51
274.187119929
  0
LINE
  5
C2B
330
A
100
AcDbEntity
  8
1
  6
Continuous
100
AcDbLine
 10
517.9238334163573
 20
916.4514542056023
 30
0.0
 11
517.9266607928574
 21
914.9686875081027
 31
0.0
  0
ARC
  5
C2D
330
A
100
AcDbEntity
  8
1
  6
Continuous
100
AcDbCircle
 10
526.3054967528574
 20
800.5182650501019
 30
0.0
 40
8.378838828499993
100
AcDbArc
 50
179.9525900045998
 51
194.5456573845
  0
ARC
  5
C2F
330
A
100
AcDbEntity
  8
1
  6
Continuous
100
AcDbCircle
 10
526.4132360638574
 20
800.2599489621021
 30
0.0
 40
8.422807613999994
100
AcDbArc
 50
192.6603880879
 51
264.8600340775
  0
LINE
  5
C32
330
A
100
AcDbEntity
  8
1
  6
Continuous
100
AcDbLine
 10
739.4530019963573
 20
914.9686875081027
 30
0.0
 11
739.4558293728579
 21
916.4514542056023
 31
0.0
  0
LINE
  5
C38
330
A
100
AcDbEntity
  8
1
  6
Continuous
100
AcDbLine
 10
731.2092730833578
 20
925.4144804391026
 30
0.0
 11
526.1703897058579
 21
925.4144804391026
 31
0.0
  0
ARC
  5
C39
330
A
100
AcDbEntity
  8
1
  6
Continuous
100
AcDbCircle
 10
730.8857851848578
 20
916.8416587031019
 30
0.0
 40
8.578922830500001
100
AcDbArc
 50
357.3930542066997
 51
87.8390193425
  0
ARC
  5
C3A
330
A
100
AcDbEntity
  8
1
  6
Continuous
100
AcDbCircle
 10
526.4939331998578
 20
916.8416075516024
 30
0.0
 40
8.578976042
100
AcDbArc
 50
92.1613388141
 51
182.6065876366998
  0
ARC
  5
C3E
330
A
100
AcDbEntity
  8
1
  6
Continuous
100
AcDbCircle
 10
525.6463838728579
 20
800.8100527061026
 30
0.0
 40
11.95656969249999
100
AcDbArc
 50
180.0972260122999
 51
230.3073529871998
  0
ARC
  5
C44
330
A
100
AcDbEntity
  8
1
  6
Continuous
100
AcDbCircle
 10
731.7402592253579
 20
800.8035151461024
 30
0.0
 40
11.94958008199999
100
AcDbArc
 50
273.8177922071
 51
359.9340634076998
  0
SPLINE
  5
C45
330
A
100
AcDbEntity
  8
1
  6
Continuous
100
AcDbSpline
210
0.0
220
0.0
230
1.0
 70
     8
 71
     3
 72
     8
 73
     4
 74
     0
 42
0.0000000001
 43
0.0000000001
 40
0.0
 40
0.0
 40
0.0
 40
0.0
 40
0.2709370113215774
 40
0.2709370113215774
 40
0.2709370113215774
 40
0.2709370113215774
 10
732.5359070433157
 20
788.8804530942575
 30
0.0
 10
732.5121443655724
 20
788.8586279877499
 30
0.0
 10
732.4805872825254
 20
788.8464009817864
 30
0.0
 10
732.4413144984598
 20
788.8436788426458
 30
0.0
  0
LINE
  5
C49
330
A
100
AcDbEntity
  8
1
  6
Continuous
100
AcDbLine
 10
517.9266607928574
 20
914.9686875081027
 30
0.0
 11
517.9266607928574
 21
800.5251982076025
 31
0.0
  0
ARC
  5
C4A
330
A
100
AcDbEntity
  8
1
  6
Continuous
100
AcDbCircle
 10
525.6628371808578
 20
800.597070850102
 30
0.0
 40
11.7572297075
100
AcDbArc
 50
229.5817901863999
 51
266.5503940559998
  0
ARC
  5
C4B
330
A
100
AcDbEntity
  8
1
  6
Continuous
100
AcDbCircle
 10
628.6772929658578
 20
2289.270066578102
 30
0.0
 40
1504.003959637499
100
AcDbArc
 50
266.0455766656
 51
273.9553844063
  0
ELLIPSE
  5
C4C
330
A
100
AcDbEntity
  8
1
  6
Continuous
100
AcDbEllipse
 10
693.7583546573578
 20
879.8610072301018
 30
0.0
 11
-37.94181955210586
 21
-49.97452538275151
 31
0.0
210
0.0
220
0.0
230
1.0
 40
0.0420610732
 41
3.138608963187116
 42
3.174071081892575
  0
ELLIPSE
  5
C4D
330
A
100
AcDbEntity
  8
1
  6
Continuous
100
AcDbEllipse
 10
563.6213081318579
 20
879.8610072301018
 30
0.0
 11
37.94181955205113
 21
-49.97452538268152
 31
0.0
210
0.0
220
0.0
230
1.0
 40
0.0420610732
 41
3.109118436924718
 42
3.144576343991873
  0
ARC
  5
C4E
330
A
100
AcDbEntity
  8
1
  6
Continuous
100
AcDbCircle
 10
525.6464204243579
 20
917.8739754596024
 30
0.0
 40
11.956603528
100
AcDbArc
 50
89.8707823514
 51
179.9107745526
  0
LINE
  5
C51
330
A
100
AcDbEntity
  8
1
  6
Continuous
100
AcDbLine
 10
731.6137531843573
 20
929.8610072296021
 30
0.0
 11
525.7659096048573
 21
929.8610072296021
 31
0.0
  0
ARC
  5
C53
330
A
100
AcDbEntity
  8
1
  6
Continuous
100
AcDbCircle
 10
731.6898242548579
 20
917.8089442791019
 30
0.0
 40
12.03348526999999
100
AcDbArc
 50
48.92235577869996
 51
57.73930741169998
  0
LINE
  5
C55
330
A
100
AcDbEntity
  8
1
  6
Continuous
100
AcDbLine
 10
743.6898313948579
 20
917.8925952056019
 30
0.0
 11
743.6898313948579
 21
917.8054394631026
 31
0.0
  0
LINE
  5
C56
330
A
100
AcDbEntity
  8
1
  6
Continuous
100
AcDbLine
 10
525.6733858118578
 20
929.8305485801025
 30
0.0
 11
731.7062769778574
 21
929.8305485801025
 31
0.0
  0
LINE
  5
C57
330
A
100
AcDbEntity
  8
1
  6
Continuous
100
AcDbLine
 10
513.6898313948579
 20
917.8054394631026
 30
0.0
 11
513.6898313948579
 21
917.8925952056019
 31
0.0
  0
ARC
  5
C59
330
A
100
AcDbEntity
  8
1
  6
Continuous
100
AcDbCircle
 10
731.7332343523574
 20
917.8739674161027
 30
0.0
 40
11.956611553
100
AcDbArc
 50
0.0892639310999411
 51
90.12917916489998
  0
ARC
  5
C5A
330
A
100
AcDbEntity
  8
1
  6
Continuous
100
AcDbCircle
 10
791.5306445553579
 20
846.3321841041022
 30
0.0
 40
71.85953044299994
100
AcDbArc
 50
183.0345806078
 51
183.0351649514
  0
ARC
  5
C5B
330
A
100
AcDbEntity
  8
1
  6
Continuous
100
AcDbCircle
 10
791.3406163338573
 20
846.3323285036024
 30
0.0
 40
72.46934002749999
100
AcDbArc
 50
183.0524934028
 51
183.0531450366
  0
LINE
  5
C5C
330
A
100
AcDbEntity
  8
1
  6
Continuous
100
AcDbLine
 10
744.2118086143578
 20
867.9435321766025
 30
0.0
 11
743.6898313948579
 21
867.9492756666025
 31
0.0
  0
ARC
  5
C5D
330
A
100
AcDbEntity
  8
1
  6
Continuous
100
AcDbCircle
 10
744.1898313948574
 20
865.942980011102
 30
0.0
 40
2.0
100
AcDbArc
 50
0.0
 51
89.37060464190002
  0
ARC
  5
C60
330
A
100
AcDbEntity
  8
1
  6
Continuous
100
AcDbCircle
 10
744.1898313948574
 20
856.0688645236025
 30
0.0
 40
2.0
100
AcDbArc
 50
270.6293953581
 51
0.0
  0
LINE
  5
C61
330
A
100
AcDbEntity
  8
1
  6
Continuous
100
AcDbLine
 10
743.6898313948579
 20
854.0624825016024
 30
0.0
 11
744.2118086358578
 21
854.0682115776025
 31
0.0
  0
LINE
  5
C6A
330
A
100
AcDbEntity
  8
1
  6
Continuous
100
AcDbLine
 10
746.1898313948579
 20
863.0813051116025
 30
0.0
 11
746.1898313948579
 21
856.0688645236025
 31
0.0
  0
LINE
  5
C6E
330
A
100
AcDbEntity
  8
1
  6
Continuous
100
AcDbLine
 10
746.1898313948579
 20
865.942980011102
 30
0.0
 11
746.1898313948579
 21
863.0813051116025
 31
0.0
  0
LINE
  5
C75
330
A
100
AcDbEntity
  8
1
  6
Continuous
100
AcDbLine
 10
650.6898313948579
 20
857.1109548506024
 30
0.0
 11
540.689831394858
 21
857.1109548506024
 31
0.0
  0
ELLIPSE
  5
C76
330
A
100
AcDbEntity
  8
1
  6
Continuous
100
AcDbEllipse
 10
540.689831394858
 20
858.1071495486021
 30
0.0
 11
1.000000000000001
 21
-0.000000000003608
 31
0.0
210
0.0
220
0.0
230
1.0
 40
0.9961946981
 41
3.141592653593415
 42
4.712388980388284
  0
ELLIPSE
  5
C77
330
A
100
AcDbEntity
  8
1
  6
Continuous
100
AcDbEllipse
 10
650.6898313948579
 20
858.1071495486021
 30
0.0
 11
0.9999999999999939
 21
0.000000000000028
 31
0.0
210
0.0
220
0.0
230
1.0
 40
0.9961946981
 41
4.712388980384662
 42
6.283185307179558
  0
LINE
  5
C78
330
A
100
AcDbEntity
  8
1
  6
Continuous
100
AcDbLine
 10
732.489831394858
 20
815.9572193516025
 30
0.0
 11
524.8898313948579
 21
815.9572193516025
 31
0.0
  0
ELLIPSE
  5
C79
330
A
100
AcDbEntity
  8
1
  6
Continuous
100
AcDbEllipse
 10
732.489831394858
 20
817.4515113986023
 30
0.0
 11
1.500000000000014
 21
-0.000000000000111
 31
0.0
210
0.0
220
0.0
230
1.0
 40
0.9961946980999998
 41
4.712388980384762
 42
6.283185307179565
  0
LINE
  5
C7A
330
A
100
AcDbEntity
  8
1
  6
Continuous
100
AcDbLine
 10
733.9898313948574
 20
910.6953351401026
 30
0.0
 11
733.9898313948574
 21
817.4515113986023
 31
0.0
  0
LINE
  5
C7D
330
A
100
AcDbEntity
  8
1
  6
Continuous
100
AcDbLine
 10
650.6898313948579
 20
857.1000603826025
 30
0.0
 11
540.689831394858
 21
857.1000603826025
 31
0.0
  0
ELLIPSE
  5
C7E
330
A
100
AcDbEntity
  8
1
  6
Continuous
100
AcDbEllipse
 10
540.689831394858
 20
858.096255080602
 30
0.0
 11
1.000000000000014
 21
0.0000000000000555
 31
0.0
210
0.0
220
0.0
230
1.0
 40
0.9961946981
 41
3.141592653589792
 42
4.712388980384633
  0
LINE
  5
C7F
330
A
100
AcDbEntity
  8
1
  6
Continuous
100
AcDbLine
 10
539.6898313948579
 20
858.096255080602
 30
0.0
 11
539.6898313948579
 21
891.9668748156025
 31
0.0
  0
LINE
  5
C80
330
A
100
AcDbEntity
  8
1
  6
Continuous
100
AcDbLine
 10
523.3898313948579
 20
817.4515113986023
 30
0.0
 11
523.3898313948579
 21
910.6953351401026
 31
0.0
  0
ELLIPSE
  5
C81
330
A
100
AcDbEntity
  8
1
  6
Continuous
100
AcDbEllipse
 10
524.8898313948579
 20
817.4515113986023
 30
0.0
 11
1.500000000000029
 21
0.0000000000017765
 31
0.0
210
0.0
220
0.0
230
1.0
 40
0.9961946980999998
 41
3.141592653588603
 42
4.71238898038351
  0
ELLIPSE
  5
C82
330
A
100
AcDbEntity
  8
1
  6
Continuous
100
AcDbEllipse
 10
540.689831394858
 20
891.9668748156025
 30
0.0
 11
-1.000000000000001
 21
-0.000000000000028
 31
0.0
210
0.0
220
0.0
230
1.0
 40
0.9961946981
 41
4.712388980384662
 42
6.283185307179558
  0
LINE
  5
C83
330
A
100
AcDbEntity
  8
1
  6
Continuous
100
AcDbLine
 10
540.689831394858
 20
892.9630695136021
 30
0.0
 11
650.6898313948579
 21
892.9630695136021
 31
0.0
  0
ELLIPSE
  5
C84
330
A
100
AcDbEntity
  8
1
  6
Continuous
100
AcDbEllipse
 10
650.6898313948579
 20
891.9668748156025
 30
0.0
 11
-1.000000000000001
 21
0.000000000003636
 31
0.0
210
0.0
220
0.0
230
1.0
 40
0.9961946981
 41
3.141592653593441
 42
4.712388980388311
  0
LINE
  5
C85
330
A
100
AcDbEntity
  8
1
  6
Continuous
100
AcDbLine
 10
651.6898313948574
 20
891.9668748156025
 30
0.0
 11
651.6898313948574
 21
858.096255080602
 31
0.0
  0
ELLIPSE
  5
C86
330
A
100
AcDbEntity
  8
1
  6
Continuous
100
AcDbEllipse
 10
650.6898313948579
 20
858.096255080602
 30
0.0
 11
0.9999999999999939
 21
0.000000000000028
 31
0.0
210
0.0
220
0.0
230
1.0
 40
0.9961946981
 41
4.712388980384662
 42
6.283185307179558
  0
LINE
  5
C87
330
A
100
AcDbEntity
  8
1
  6
Continuous
100
AcDbLine
 10
650.6898313948579
 20
857.1000603826025
 30
0.0
 11
650.6898313948579
 21
857.1109548506024
 31
0.0
  0
LINE
  5
C88
330
A
100
AcDbEntity
  8
1
  6
Continuous
100
AcDbLine
 10
540.689831394858
 20
857.1000603826025
 30
0.0
 11
540.689831394858
 21
857.1109548506024
 31
0.0
  0
LINE
  5
C89
330
A
100
AcDbEntity
  8
1
  6
Continuous
100
AcDbLine
 10
523.3898313948579
 20
910.6953351401026
 30
0.0
 11
523.3898313948579
 21
910.7062296076026
 31
0.0
  0
LINE
  5
C8A
330
A
100
AcDbEntity
  8
1
  6
Continuous
100
AcDbLine
 10
733.9898313948574
 20
910.6953351401026
 30
0.0
 11
733.9898313948574
 21
910.7062296076026
 31
0.0
  0
LINE
  5
C90
330
A
100
AcDbEntity
  8
1
  6
Continuous
100
AcDbLine
 10
526.889831394858
 20
914.2103421996026
 30
0.0
 11
730.4898313948578
 21
914.2103421996026
 31
0.0
  0
ELLIPSE
  5
C91
330
A
100
AcDbEntity
  8
1
  6
Continuous
100
AcDbEllipse
 10
650.6898313948579
 20
858.1071495486021
 30
0.0
 11
0.9999999999999939
 21
0.000000000000028
 31
0.0
210
0.0
220
0.0
230
1.0
 40
0.9961946981
 41
4.712388980384662
 42
6.283185307179558
  0
LINE
  5
C92
330
A
100
AcDbEntity
  8
1
  6
Continuous
100
AcDbLine
 10
650.6898313948579
 20
857.1109548506024
 30
0.0
 11
540.689831394858
 21
857.1109548506024
 31
0.0
  0
ELLIPSE
  5
C93
330
A
100
AcDbEntity
  8
1
  6
Continuous
100
AcDbEllipse
 10
540.689831394858
 20
858.1071495486021
 30
0.0
 11
1.000000000000014
 21
0.0000000000000555
 31
0.0
210
0.0
220
0.0
230
1.0
 40
0.9961946981
 41
3.141592653589792
 42
4.712388980384633
  0
ELLIPSE
  5
C94
330
A
100
AcDbEntity
  8
1
  6
Continuous
100
AcDbEllipse
 10
549.6898313948579
 20
831.7079900491025
 30
0.0
 11
9.499999999999783
 21
-0.000000000032363
 31
0.0
210
0.0
220
0.0
230
1.0
 40
0.9961946981
 41
0.0
 42
6.283185307179584
  0
ELLIPSE
  5
C95
330
A
100
AcDbEntity
  8
1
  6
Continuous
100
AcDbEllipse
 10
671.1898313948579
 20
831.7079900491025
 30
0.0
 11
9.499999999999783
 21
-0.000000000032363
 31
0.0
210
0.0
220
0.0
230
1.0
 40
0.9961946981
 41
0.0
 42
6.283185307179584
  0
ELLIPSE
  5
C96
330
A
100
AcDbEntity
  8
1
  6
Continuous
100
AcDbEllipse
 10
641.6898313948578
 20
831.7079900491025
 30
0.0
 11
9.499999999999984
 21
-0.000000000001832
 31
0.0
210
0.0
220
0.0
230
1.0
 40
0.9961946980999998
 41
0.0
 42
6.283185307179584
  0
ELLIPSE
  5
C97
330
A
100
AcDbEntity
  8
1
  6
Continuous
100
AcDbEllipse
 10
618.6898313948579
 20
831.7079900491025
 30
0.0
 11
9.499999999999978
 21
-0.000000000001388
 31
0.0
210
0.0
220
0.0
230
1.0
 40
0.9961946980999998
 41
0.0
 42
6.283185307179584
  0
ELLIPSE
  5
C98
330
A
100
AcDbEntity
  8
1
  6
Continuous
100
AcDbEllipse
 10
595.6898313948573
 20
831.7079900491025
 30
0.0
 11
9.499999999999984
 21
-0.000000000001499
 31
0.0
210
0.0
220
0.0
230
1.0
 40
0.9961946980999998
 41
0.0
 42
6.283185307179584
  0
ELLIPSE
  5
C99
330
A
100
AcDbEntity
  8
1
  6
Continuous
100
AcDbEllipse
 10
694.1898313948578
 20
851.631884011102
 30
0.0
 11
-9.499999999999989
 21
-0.000000000002387
 31
0.0
210
0.0
220
0.0
230
1.0
 40
0.9961946980999998
 41
0.0
 42
6.283185307179584
  0
ELLIPSE
  5
C9A
330
A
100
AcDbEntity
  8
1
  6
Continuous
100
AcDbEllipse
 10
671.1898313948579
 20
851.631884011102
 30
0.0
 11
9.500000000000184
 21
-0.0000000000280885
 31
0.0
210
0.0
220
0.0
230
1.0
 40
0.9961946981000002
 41
0.0
 42
6.283185307179584
  0
ELLIPSE
  5
C9B
330
A
100
AcDbEntity
  8
1
  6
Continuous
100
AcDbEllipse
 10
717.1898313948579
 20
831.7079900491025
 30
0.0
 11
9.499999999999783
 21
-0.000000000032363
 31
0.0
210
0.0
220
0.0
230
1.0
 40
0.9961946981
 41
0.0
 42
6.283185307179584
  0
ELLIPSE
  5
C9C
330
A
100
AcDbEntity
  8
1
  6
Continuous
100
AcDbEllipse
 10
694.1898313948578
 20
831.7079900491025
 30
0.0
 11
9.499999999999783
 21
-0.000000000032363
 31
0.0
210
0.0
220
0.0
230
1.0
 40
0.9961946981
 41
0.0
 42
6.283185307179584
  0
ELLIPSE
  5
C9D
330
A
100
AcDbEntity
  8
1
  6
Continuous
100
AcDbEllipse
 10
730.4898313948578
 20
910.7236607561025
 30
0.0
 11
-3.499999999999934
 21
0.0000000000034695
 31
0.0
210
0.0
220
0.0
230
1.0
 40
0.9961946981
 41
3.141592653589808
 42
4.712388980385676
  0
ELLIPSE
  5
C9E
330
A
100
AcDbEntity
  8
1
  6
Continuous
100
AcDbEllipse
 10
526.889831394858
 20
910.7236607561025
 30
0.0
 11
-3.499999999999975
 21
0.0000000000036915
 31
0.0
210
0.0
220
0.0
230
1.0
 40
0.9961946980999998
 41
4.71238898038574
 42
6.283185307179584
  0
ELLIPSE
  5
C9F
330
A
100
AcDbEntity
  8
1
  6
Continuous
100
AcDbEllipse
 10
717.1898313948579
 20
851.631884011102
 30
0.0
 11
9.499999999999783
 21
-0.000000000032363
 31
0.0
210
0.0
220
0.0
230
1.0
 40
0.9961946981
 41
0.0
 42
6.283185307179584
  0
LINE
  5
CA0
330
A
100
AcDbEntity
  8
1
  6
Continuous
100
AcDbLine
 10
650.6898313948579
 20
857.1283859991027
 30
0.0
 11
540.689831394858
 21
857.1283859991027
 31
0.0
  0
ELLIPSE
  5
CA1
330
A
100
AcDbEntity
  8
1
  6
Continuous
100
AcDbEllipse
 10
540.689831394858
 20
858.1245806971026
 30
0.0
 11
1.000000000000028
 21
-0.000000000000111
 31
0.0
210
0.0
220
0.0
230
1.0
 40
0.9961946981000002
 41
3.141592653589792
 42
4.712388980384798
  0
ELLIPSE
  5
CA2
330
A
100
AcDbEntity
  8
1
  6
Continuous
100
AcDbEllipse
 10
650.6898313948579
 20
858.1245806971026
 30
0.0
 11
0.9999999999999939
 21
0.000000000000028
 31
0.0
210
0.0
220
0.0
230
1.0
 40
0.9961946981
 41
4.712388980384662
 42
6.283185307179558
  0
LINE
  5
CA3
330
A
100
AcDbEntity
  8
1
  6
Continuous
100
AcDbLine
 10
650.6898313948579
 20
857.1283859991027
 30
0.0
 11
650.6898313948579
 21
857.1109548506024
 31
0.0
  0
LINE
  5
CA4
330
A
100
AcDbEntity
  8
1
  6
Continuous
100
AcDbLine
 10
540.689831394858
 20
857.1283859991027
 30
0.0
 11
540.689831394858
 21
857.1109548506024
 31
0.0
  0
LINE
  5
CA7
330
A
100
AcDbEntity
  8
1
  6
Continuous
100
AcDbLine
 10
523.3899196333574
 20
812.0720581631026
 30
0.0
 11
523.3899196333574
 21
812.0829526306019
 31
0.0
  0
LINE
  5
CAC
330
A
100
AcDbEntity
  8
1
  6
Continuous
100
AcDbLine
 10
733.9899196333578
 20
812.0720581631026
 30
0.0
 11
733.9899196333578
 21
805.9962545841022
 31
0.0
  0
LINE
  5
CAF
330
A
100
AcDbEntity
  8
1
  6
Continuous
100
AcDbLine
 10
523.3899196333574
 20
805.9962441651025
 30
0.0
 11
523.3899196333574
 21
812.0720581631026
 31
0.0
  0
ELLIPSE
  5
CB0
330
A
100
AcDbEntity
  8
1
  6
Continuous
100
AcDbEllipse
 10
526.8899198463579
 20
805.9962441651025
 30
0.0
 11
3.500000213348593
 21
-0.000000000003497
 31
0.0
210
0.0
220
0.0
230
1.0
 40
0.9961946981000002
 41
3.141592653589792
 42
4.643634654667858
  0
ELLIPSE
  5
CB1
330
A
100
AcDbEntity
  8
1
  6
Continuous
100
AcDbEllipse
 10
628.6898313928574
 20
2278.669898463101
 30
0.0
 11
1485.300000006043
 21
-0.0000057969526955
 31
0.0
210
0.0
220
0.0
230
1.0
 40
0.9961946981
 41
4.643634658555737
 42
4.781143430514527
  0
ELLIPSE
  5
CB2
330
A
100
AcDbEntity
  8
1
  6
Continuous
100
AcDbEllipse
 10
730.4899212348579
 20
805.9962545841022
 30
0.0
 11
3.499998398262343
 21
0.0000000000025535
 31
0.0
210
0.0
220
0.0
230
1.0
 40
0.9961946981
 41
4.781143426625747
 42
6.283185307178852
  0
LINE
  5
CB3
330
A
100
AcDbEntity
  8
1
  6
Continuous
100
AcDbLine
 10
733.9899196333578
 20
812.0720581631026
 30
0.0
 11
733.9899196333578
 21
812.0829526306019
 31
0.0
  0
ELLIPSE
  5
CB7
330
A
100
AcDbEntity
  8
1
  6
Continuous
100
AcDbEllipse
 10
732.4899196333574
 20
812.100383779602
 30
0.0
 11
-1.500000000000014
 21
0.0000000000000555
 31
0.0
210
0.0
220
0.0
230
1.0
 40
0.9961946980999998
 41
3.141592653589828
 42
4.712388980384726
  0
LINE
  5
CB8
330
A
100
AcDbEntity
  8
1
  6
Continuous
100
AcDbLine
 10
524.8899196333574
 20
813.5946758266024
 30
0.0
 11
732.4899196333574
 21
813.5946758266024
 31
0.0
  0
ELLIPSE
  5
CB9
330
A
100
AcDbEntity
  8
1
  6
Continuous
100
AcDbEllipse
 10
524.8899196333574
 20
812.100383779602
 30
0.0
 11
-1.500000000000014
 21
0.000000000000111
 31
0.0
210
0.0
220
0.0
230
1.0
 40
0.9961946980999998
 41
4.712388980384762
 42
6.283185307179565
  0
LINE
  5
CBD
330
A
100
AcDbEntity
  8
1
  6
Continuous
100
AcDbLine
 10
594.6898313948574
 20
930.2927690176018
 30
0.0
 11
594.6898313948574
 21
929.8610072296021
 31
0.0
  0
ELLIPSE
  5
CBE
330
A
100
AcDbEntity
  8
1
  6
Continuous
100
AcDbEllipse
 10
586.1898313948579
 20
930.5025056816026
 30
0.0
 11
-8.499999999999959
 21
0.000000000007716
 31
0.0
210
0.0
220
0.0
230
1.0
 40
0.9961946981000002
 41
3.86274188743785
 42
5.562036073333335
  0
LINE
  5
CBF
330
A
100
AcDbEntity
  8
1
  6
Continuous
100
AcDbLine
 10
577.6898313948579
 20
929.8610072296021
 30
0.0
 11
577.6898313948579
 21
930.2927690176018
 31
0.0
  0
ARC
  5
CC0
330
A
100
AcDbEntity
  8
1
  6
Continuous
100
AcDbCircle
 10
586.8678799443578
 20
930.2307297266024
 30
0.0
 40
9.1782582255
100
AcDbArc
 50
140.3019941141
 51
179.612713381
  0
ARC
  5
CC1
330
A
100
AcDbEntity
  8
1
  6
Continuous
100
AcDbCircle
 10
585.5157381153579
 20
930.2321726621022
 30
0.0
 40
9.174293401499994
100
AcDbArc
 50
0.3784422960000564
 51
39.70685020890002
  0
LINE
  5
CC2
330
A
100
AcDbEntity
  8
1
  6
Continuous
100
AcDbLine
 10
619.1898313948579
 20
931.7160285081024
 30
0.0
 11
619.1898313948579
 21
929.8610072296021
 31
0.0
  0
LINE
  5
CC3
330
A
100
AcDbEntity
  8
1
  6
Continuous
100
AcDbLine
 10
626.1898313948579
 20
929.8610072296021
 30
0.0
 11
626.1898313948579
 21
931.7160285081024
 31
0.0
  0
ELLIPSE
  5
CC4
330
A
100
AcDbEntity
  8
1
  6
Continuous
100
AcDbEllipse
 10
622.6898313948579
 20
935.3714863216024
 30
0.0
 11
3.500000000000001
 21
0.0
 31
0.0
210
0.0
220
0.0
230
1.0
 40
0.0871557427
 41
0.0
 42
6.283185307179584
  0
ELLIPSE
  5
CC5
330
A
100
AcDbEntity
  8
1
  6
Continuous
100
AcDbEllipse
 10
622.6898313948579
 20
931.8848048786026
 30
0.0
 11
3.999999999999999
 21
0.0
 31
0.0
210
0.0
220
0.0
230
1.0
 40
0.0871557427
 41
3.141592653589792
 42
6.283185307179584
  0
ELLIPSE
  5
CC6
330
A
100
AcDbEntity
  8
1
  6
Continuous
100
AcDbEllipse
 10
622.6898313948579
 20
934.873388972602
 30
0.0
 11
4.000000000000001
 21
0.0
 31
0.0
210
0.0
220
0.0
230
1.0
 40
0.0871557427
 41
0.0
 42
0.0876006599733783
  0
ELLIPSE
  5
CC7
330
A
100
AcDbEntity
  8
1
  6
Continuous
100
AcDbEllipse
 10
622.6898313948579
 20
934.873388972602
 30
0.0
 11
4.000000000000001
 21
0.0
 31
0.0
210
0.0
220
0.0
230
1.0
 40
0.0871557427
 41
3.053991993616819
 42
6.283185307179584
  0
LINE
  5
CC8
330
A
100
AcDbEntity
  8
1
  6
Continuous
100
AcDbLine
 10
619.2032520913573
 20
935.3981743096024
 30
0.0
 11
618.7051693338578
 21
934.9038895306021
 31
0.0
  0
ARC
  5
CC9
330
A
100
AcDbEntity
  8
1
  6
Continuous
100
AcDbCircle
 10
622.6899889828574
 20
930.3362895721019
 30
0.0
 40
0.748667608
100
AcDbArc
 50
320.5920598879862
 51
219.4079401120137
  0
LINE
  5
CCB
330
A
100
AcDbEntity
  8
1
  6
Continuous
100
AcDbLine
 10
618.6898313948579
 20
934.873388972602
 30
0.0
 11
618.6898313948579
 21
931.8848048786026
 31
0.0
  0
LINE
  5
CCC
330
A
100
AcDbEntity
  8
1
  6
Continuous
100
AcDbLine
 10
626.6744934558579
 20
934.9038895306021
 30
0.0
 11
626.1764106978578
 21
935.3981743096024
 31
0.0
  0
LINE
  5
CCD
330
A
100
AcDbEntity
  8
1
  6
Continuous
100
AcDbLine
 10
626.6898313948579
 20
931.8848048786026
 30
0.0
 11
626.6898313948579
 21
934.873388972602
 31
0.0
  0
LINE
  5
CCE
330
A
100
AcDbEntity
  8
1
  6
Continuous
100
AcDbLine
 10
546.1898313948579
 20
931.7160285081024
 30
0.0
 11
546.1898313948579
 21
929.8610072296021
 31
0.0
  0
LINE
  5
CCF
330
A
100
AcDbEntity
  8
1
  6
Continuous
100
AcDbLine
 10
553.189831394858
 20
929.8610072296021
 30
0.0
 11
553.189831394858
 21
931.7160285081024
 31
0.0
  0
ELLIPSE
  5
CD0
330
A
100
AcDbEntity
  8
1
  6
Continuous
100
AcDbEllipse
 10
549.6898313948579
 20
935.3714863216024
 30
0.0
 11
3.500000000000003
 21
0.0
 31
0.0
210
0.0
220
0.0
230
1.0
 40
0.0871557427
 41
0.0
 42
6.283185307179584
  0
ELLIPSE
  5
CD1
330
A
100
AcDbEntity
  8
1
  6
Continuous
100
AcDbEllipse
 10
549.6898313948579
 20
931.8848048786026
 30
0.0
 11
3.999999999999996
 21
0.0
 31
0.0
210
0.0
220
0.0
230
1.0
 40
0.0871557427
 41
3.141592653589792
 42
6.283185307179584
  0
ELLIPSE
  5
CD2
330
A
100
AcDbEntity
  8
1
  6
Continuous
100
AcDbEllipse
 10
549.6898313948579
 20
934.873388972602
 30
0.0
 11
3.999999999999996
 21
0.0
 31
0.0
210
0.0
220
0.0
230
1.0
 40
0.0871557427
 41
0.0
 42
0.0876006599731625
  0
ELLIPSE
  5
CD3
330
A
100
AcDbEntity
  8
1
  6
Continuous
100
AcDbEllipse
 10
549.6898313948579
 20
934.873388972602
 30
0.0
 11
3.999999999999996
 21
0.0
 31
0.0
210
0.0
220
0.0
230
1.0
 40
0.0871557427
 41
3.053991993616629
 42
6.283185307179584
  0
LINE
  5
CD4
330
A
100
AcDbEntity
  8
1
  6
Continuous
100
AcDbLine
 10
546.2032520913575
 20
935.3981743096024
 30
0.0
 11
545.7051693338573
 21
934.9038895306021
 31
0.0
  0
ARC
  5
CD5
330
A
100
AcDbEntity
  8
1
  6
Continuous
100
AcDbCircle
 10
549.6899889828577
 20
930.3362895721019
 30
0.0
 40
0.748667608
100
AcDbArc
 50
320.5920598879862
 51
219.4079401120137
  0
LINE
  5
CD7
330
A
100
AcDbEntity
  8
1
  6
Continuous
100
AcDbLine
 10
545.6898313948579
 20
934.873388972602
 30
0.0
 11
545.6898313948579
 21
931.8848048786026
 31
0.0
  0
LINE
  5
CD8
330
A
100
AcDbEntity
  8
1
  6
Continuous
100
AcDbLine
 10
553.6744934558575
 20
934.9038895306021
 30
0.0
 11
553.1764106978579
 21
935.3981743096024
 31
0.0
  0
LINE
  5
CD9
330
A
100
AcDbEntity
  8
1
  6
Continuous
100
AcDbLine
 10
553.6898313948579
 20
931.8848048786026
 30
0.0
 11
553.6898313948579
 21
934.873388972602
 31
0.0
  0
LINE
  5
CDA
330
A
100
AcDbEntity
  8
1
  6
Continuous
100
AcDbLine
 10
458.6898313948579
 20
418.1838003926024
 30
0.0
 11
458.6898313948579
 21
443.6838003926025
 31
0.0
  0
LINE
  5
CDB
330
A
100
AcDbEntity
  8
1
  6
Continuous
100
AcDbLine
 10
795.6898313948579
 20
415.1838003926025
 30
0.0
 11
728.6538636503573
 21
415.1838003926025
 31
0.0
  0
LINE
  5
CDC
330
A
100
AcDbEntity
  8
1
  6
Continuous
100
AcDbLine
 10
528.7257991393579
 20
415.1838003926025
 30
0.0
 11
461.6898313948579
 21
415.1838003926025
 31
0.0
  0
LINE
  5
CE0
330
A
100
AcDbEntity
  8
1
  6
Continuous
100
AcDbLine
 10
739.6898313948579
 20
418.1838003926024
 30
0.0
 11
741.7898313948578
 21
418.1838003926024
 31
0.0
  0
LINE
  5
CE2
330
A
100
AcDbEntity
  8
1
  6
Continuous
100
AcDbLine
 10
798.689831394858
 20
443.6838003926025
 30
0.0
 11
798.689831394858
 21
418.1838003926024
 31
0.0
  0
ARC
  5
CE4
330
A
100
AcDbEntity
  8
1
  6
Continuous
100
AcDbCircle
 10
461.6898313948579
 20
418.1838003926024
 30
0.0
 40
3.0
100
AcDbArc
 50
180.0
 51
270.0
  0
ARC
  5
CE6
330
A
100
AcDbEntity
  8
1
  6
Continuous
100
AcDbCircle
 10
795.6898313948579
 20
418.1838003926024
 30
0.0
 40
3.0
100
AcDbArc
 50
270.0
 51
0.0
  0
LINE
  5
CE9
330
A
100
AcDbEntity
  8
1
  6
Continuous
100
AcDbLine
 10
677.1898313948579
 20
415.1838003926025
 30
0.0
 11
677.1898313948579
 21
413.6838003926025
 31
0.0
  0
LINE
  5
CEA
330
A
100
AcDbEntity
  8
1
  6
Continuous
100
AcDbLine
 10
690.1898313948579
 20
413.6838003926025
 30
0.0
 11
690.1898313948579
 21
415.1838003926025
 31
0.0
  0
LINE
  5
CEB
330
A
100
AcDbEntity
  8
1
  6
Continuous
100
AcDbLine
 10
677.1898313948579
 20
413.6838003926025
 30
0.0
 11
690.1898313948579
 21
413.6838003926025
 31
0.0
  0
LINE
  5
CEC
330
A
100
AcDbEntity
  8
1
  6
Continuous
100
AcDbLine
 10
470.6898313948579
 20
407.1838003926025
 30
0.0
 11
470.6898313948579
 21
414.4692692126024
 31
0.0
  0
LINE
  5
CED
330
A
100
AcDbEntity
  8
1
  6
Continuous
100
AcDbLine
 10
486.6898313948579
 20
407.1838003926025
 30
0.0
 11
486.6898313948579
 21
414.4692692126024
 31
0.0
  0
LINE
  5
CEE
330
A
100
AcDbEntity
  8
1
  6
Continuous
100
AcDbLine
 10
478.6898313948579
 20
414.4692692126024
 30
0.0
 11
478.6898313948579
 21
407.1838003926025
 31
0.0
  0
ARC
  5
CEF
330
A
100
AcDbEntity
  8
1
  6
Continuous
100
AcDbCircle
 10
482.8304287303579
 20
402.8433077811024
 30
0.0
 40
12.34129350999999
100
AcDbArc
 50
90.65275233820001
 51
109.6034056623
  0
ARC
  5
CF0
330
A
100
AcDbEntity
  8
1
  6
Continuous
100
AcDbCircle
 10
482.5167849963579
 20
402.6616554551025
 30
0.0
 40
12.523340564
100
AcDbArc
 50
70.53557514470004
 51
89.2082668549
  0
LINE
  5
CF1
330
A
100
AcDbEntity
  8
1
  6
Continuous
100
AcDbLine
 10
470.6898313948579
 20
414.4692692126024
 30
0.0
 11
470.6898313948579
 21
415.1838003926025
 31
0.0
  0
ARC
  5
CF2
330
A
100
AcDbEntity
  8
1
  6
Continuous
100
AcDbCircle
 10
474.8304287303579
 20
402.8433077811024
 30
0.0
 40
12.34129350999999
100
AcDbArc
 50
90.65275233820001
 51
109.6034056623
  0
ARC
  5
CF3
330
A
100
AcDbEntity
  8
1
  6
Continuous
100
AcDbCircle
 10
474.5167849963578
 20
402.6616554551025
 30
0.0
 40
12.523340564
100
AcDbArc
 50
70.53557514470004
 51
89.2082668549
  0
LINE
  5
CF4
330
A
100
AcDbEntity
  8
1
  6
Continuous
100
AcDbLine
 10
486.6898313948579
 20
414.4692692126024
 30
0.0
 11
486.6898313948579
 21
415.1838003926025
 31
0.0
  0
LINE
  5
CF5
330
A
100
AcDbEntity
  8
1
  6
Continuous
100
AcDbLine
 10
786.6898313948575
 20
414.4692692126024
 30
0.0
 11
786.6898313948575
 21
415.1838003926025
 31
0.0
  0
LINE
  5
CF6
330
A
100
AcDbEntity
  8
1
  6
Continuous
100
AcDbLine
 10
770.6898313948579
 20
407.1838003926025
 30
0.0
 11
770.6898313948579
 21
414.4692692126024
 31
0.0
  0
LINE
  5
CF7
330
A
100
AcDbEntity
  8
1
  6
Continuous
100
AcDbLine
 10
786.6898313948575
 20
407.1838003926025
 30
0.0
 11
786.6898313948575
 21
414.4692692126024
 31
0.0
  0
LINE
  5
CF8
330
A
100
AcDbEntity
  8
1
  6
Continuous
100
AcDbLine
 10
778.6898313948579
 20
414.4692692126024
 30
0.0
 11
778.6898313948579
 21
407.1838003926025
 31
0.0
  0
ARC
  5
CF9
330
A
100
AcDbEntity
  8
1
  6
Continuous
100
AcDbCircle
 10
782.8304287303579
 20
402.8433077811024
 30
0.0
 40
12.34129350999999
100
AcDbArc
 50
90.65275233820001
 51
109.6034056623
  0
ARC
  5
CFA
330
A
100
AcDbEntity
  8
1
  6
Continuous
100
AcDbCircle
 10
782.5167849963573
 20
402.6616554551025
 30
0.0
 40
12.523340564
100
AcDbArc
 50
70.53557514470004
 51
89.2082668549
  0
LINE
  5
CFB
330
A
100
AcDbEntity
  8
1
  6
Continuous
100
AcDbLine
 10
770.6898313948579
 20
414.4692692126024
 30
0.0
 11
770.6898313948579
 21
415.1838003926025
 31
0.0
  0
ARC
  5
CFC
330
A
100
AcDbEntity
  8
1
  6
Continuous
100
AcDbCircle
 10
774.8304287303574
 20
402.8433077811024
 30
0.0
 40
12.34129350999999
100
AcDbArc
 50
90.65275233820001
 51
109.6034056623
  0
ARC
  5
CFD
330
A
100
AcDbEntity
  8
1
  6
Continuous
100
AcDbCircle
 10
774.5167849963575
 20
402.6616554551025
 30
0.0
 40
12.523340564
100
AcDbArc
 50
70.53557514470004
 51
89.2082668549
  0
LINE
  5
CFE
330
A
100
AcDbEntity
  8
1
  6
Continuous
100
AcDbLine
 10
466.6898313948579
 20
386.1838003926025
 30
0.0
 11
490.689831394858
 21
386.1838003926025
 31
0.0
  0
LINE
  5
D00
330
A
100
AcDbEntity
  8
1
  6
Continuous
100
AcDbLine
 10
489.6898313948579
 20
407.1838003926025
 30
0.0
 11
467.689831394858
 21
407.1838003926025
 31
0.0
  0
LINE
  5
D01
330
A
100
AcDbEntity
  8
1
  6
Continuous
100
AcDbLine
 10
467.689831394858
 20
407.1838003926025
 30
0.0
 11
464.6898313948579
 21
403.1838003926025
 31
0.0
  0
ARC
  5
D02
330
A
100
AcDbEntity
  8
1
  6
Continuous
100
AcDbCircle
 10
466.6898313948579
 20
388.1838003926024
 30
0.0
 40
2.0
100
AcDbArc
 50
180.0
 51
270.0
  0
LINE
  5
D03
330
A
100
AcDbEntity
  8
1
  6
Continuous
100
AcDbLine
 10
450.6784749223579
 20
403.1838003926025
 30
0.0
 11
442.100447240358
 21
399.1838003926025
 31
0.0
  0
LINE
  5
D04
330
A
100
AcDbEntity
  8
1
  6
Continuous
100
AcDbLine
 10
464.6898313948579
 20
391.1838003926025
 30
0.0
 11
464.6898313948579
 21
388.1838003926024
 31
0.0
  0
LINE
  5
D05
330
A
100
AcDbEntity
  8
1
  6
Continuous
100
AcDbLine
 10
492.689831394858
 20
403.1838003926025
 30
0.0
 11
489.6898313948579
 21
407.1838003926025
 31
0.0
  0
ARC
  5
D06
330
A
100
AcDbEntity
  8
1
  6
Continuous
100
AcDbCircle
 10
490.689831394858
 20
388.1838003926024
 30
0.0
 40
2.0
100
AcDbArc
 50
270.0
 51
0.0
  0
LINE
  5
D07
330
A
100
AcDbEntity
  8
1
  6
Continuous
100
AcDbLine
 10
516.6898313948579
 20
391.1838003926025
 30
0.0
 11
515.2792155488579
 21
399.1838003926025
 31
0.0
  0
LINE
  5
D08
330
A
100
AcDbEntity
  8
1
  6
Continuous
100
AcDbLine
 10
515.2792155488579
 20
399.1838003926025
 30
0.0
 11
506.7011878668579
 21
403.1838003926025
 31
0.0
  0
LINE
  5
D09
330
A
100
AcDbEntity
  8
1
  6
Continuous
100
AcDbLine
 10
442.100447240358
 20
399.1838003926025
 30
0.0
 11
440.689831394858
 21
391.1838003926025
 31
0.0
  0
LINE
  5
D0A
330
A
100
AcDbEntity
  8
1
  6
Continuous
100
AcDbLine
 10
492.689831394858
 20
388.1838003926024
 30
0.0
 11
492.689831394858
 21
391.1838003926025
 31
0.0
  0
LINE
  5
D0B
330
A
100
AcDbEntity
  8
1
  6
Continuous
100
AcDbLine
 10
514.9655714513578
 20
399.1838003926025
 30
0.0
 11
515.2792155488579
 21
399.1838003926025
 31
0.0
  0
LINE
  5
D0C
330
A
100
AcDbEntity
  8
1
  6
Continuous
100
AcDbLine
 10
507.7210167803575
 20
399.1838003926025
 30
0.0
 11
500.960289582358
 21
399.1838003926025
 31
0.0
  0
LINE
  5
D0D
330
A
100
AcDbEntity
  8
1
  6
Continuous
100
AcDbLine
 10
483.4703874423579
 20
399.1838003926025
 30
0.0
 11
473.9092753473579
 21
399.1838003926025
 31
0.0
  0
LINE
  5
D0E
330
A
100
AcDbEntity
  8
1
  6
Continuous
100
AcDbLine
 10
501.4449359083574
 20
391.1838003926025
 30
0.0
 11
484.1193616748579
 21
391.1838003926025
 31
0.0
  0
LINE
  5
D0F
330
A
100
AcDbEntity
  8
1
  6
Continuous
100
AcDbLine
 10
516.2999390913575
 20
391.1838003926025
 30
0.0
 11
509.123451267858
 21
391.1838003926025
 31
0.0
  0
LINE
  5
D10
330
A
100
AcDbEntity
  8
1
  6
Continuous
100
AcDbLine
 10
473.2603011143579
 20
391.1838003926025
 30
0.0
 11
484.1193616748579
 21
391.1838003926025
 31
0.0
  0
LINE
  5
D11
330
A
100
AcDbEntity
  8
1
  6
Continuous
100
AcDbLine
 10
501.4449359083574
 20
391.1838003926025
 30
0.0
 11
509.123451267858
 21
391.1838003926025
 31
0.0
  0
LINE
  5
D12
330
A
100
AcDbEntity
  8
1
  6
Continuous
100
AcDbLine
 10
448.2562115218579
 20
391.1838003926025
 30
0.0
 11
455.9347268808578
 21
391.1838003926025
 31
0.0
  0
LINE
  5
D13
330
A
100
AcDbEntity
  8
1
  6
Continuous
100
AcDbLine
 10
516.2999390913575
 20
391.1838003926025
 30
0.0
 11
516.6898313948579
 21
391.1838003926025
 31
0.0
  0
SPLINE
  5
D14
330
A
100
AcDbEntity
  8
1
  6
Continuous
100
AcDbSpline
210
0.0
220
0.0
230
1.0
 70
     8
 71
     3
 72
    14
 73
    10
 74
     0
 42
0.0000000001
 43
0.0000000001
 40
0.0
 40
0.0
 40
0.0
 40
0.0
 40
0.2499999999999999
 40
0.2499999999999999
 40
0.5
 40
0.5
 40
0.75
 40
0.75
 40
1.0
 40
1.0
 40
1.0
 40
1.0
 10
514.9655714515099
 20
399.1838003925954
 30
0.0
 10
513.8079102556853
 20
399.6519865617925
 30
0.0
 10
512.7617610403208
 20
400.0327100764417
 30
0.0
 10
510.9065383940089
 20
400.56377385475
 30
0.0
 10
510.101946860346
 20
400.7079819491313
 30
0.0
 10
508.8471326612279
 20
400.7081205386278
 30
0.0
 10
508.3777365333404
 20
400.5645214376506
 30
0.0
 10
507.7974497213499
 20
400.0330828145298
 30
0.0
 10
507.6801835262559
 20
399.6520393470136
 30
0.0
 10
507.7210167804048
 20
399.1838003925956
 30
0.0
  0
ARC
  5
D15
330
A
100
AcDbEntity
  8
1
  6
Continuous
100
AcDbCircle
 10
492.2153385123579
 20
374.9349160331024
 30
0.0
 40
25.7775592695
100
AcDbArc
 50
70.16901638120001
 51
109.8309836187999
  0
ARC
  5
D16
330
A
100
AcDbEntity
  8
1
  6
Continuous
100
AcDbCircle
 10
465.1643242768579
 20
374.9343319501024
 30
0.0
 40
25.7781087155
100
AcDbArc
 50
70.16945679559999
 51
109.8305432043999
  0
LINE
  5
D17
330
A
100
AcDbEntity
  8
1
  6
Continuous
100
AcDbLine
 10
473.2603011143579
 20
391.1838003926025
 30
0.0
 11
455.9347268808578
 21
391.1838003926025
 31
0.0
  0
SPLINE
  5
D18
330
A
100
AcDbEntity
  8
1
  6
Continuous
100
AcDbSpline
210
0.0
220
0.0
230
1.0
 70
     8
 71
     3
 72
    14
 73
    10
 74
     0
 42
0.0000000001
 43
0.0000000001
 40
0.0
 40
0.0
 40
0.0
 40
0.0
 40
0.25
 40
0.25
 40
0.5
 40
0.5
 40
0.75
 40
0.75
 40
1.0
 40
1.0
 40
1.0
 40
1.0
 10
449.6586460089559
 20
399.1838003925963
 30
0.0
 10
449.6994746599161
 20
399.6519865617933
 30
0.0
 10
449.5821955807342
 20
400.0327100764425
 30
0.0
 10
449.0031661458719
 20
400.5637738547508
 30
0.0
 10
448.5333110513037
 20
400.7079819491321
 30
0.0
 10
447.2788219055821
 20
400.7081205386285
 30
0.0
 10
446.4761398327776
 20
400.5645214376515
 30
0.0
 10
444.6188009004343
 20
400.0330828145305
 30
0.0
 10
443.571883053127
 20
399.6520393470144
 30
0.0
 10
442.4140913378507
 20
399.1838003925963
 30
0.0
  0
ARC
  5
D19
330
A
100
AcDbEntity
  8
1
  6
Continuous
100
AcDbCircle
 10
-2590.346680842642
 20
207.8952996111025
 30
0.0
 40
3097.2197332335
100
AcDbArc
 50
3.392654614599943
 51
3.540918781499962
  0
LINE
  5
D1A
330
A
100
AcDbEntity
  8
1
  6
Continuous
100
AcDbLine
 10
484.1193616748579
 20
391.1838003926025
 30
0.0
 11
483.4703874423579
 21
399.1838003926025
 31
0.0
  0
ARC
  5
D1B
330
A
100
AcDbEntity
  8
1
  6
Continuous
100
AcDbCircle
 10
-7215.947807309643
 20
1738.874731008102
 30
0.0
 40
7781.7924726075
100
AcDbArc
 50
350.0269374223
 51
350.0867380564999
  0
LINE
  5
D1C
330
A
100
AcDbEntity
  8
1
  6
Continuous
100
AcDbLine
 10
448.2562115218579
 20
391.1838003926025
 30
0.0
 11
441.0797236983579
 21
391.1838003926025
 31
0.0
  0
ARC
  5
D1D
330
A
100
AcDbEntity
  8
1
  6
Continuous
100
AcDbCircle
 10
-2626.931379399141
 20
646.7031879876026
 30
0.0
 40
3110.703877479
100
AcDbArc
 50
355.2883022972
 51
355.4361376758997
  0
LINE
  5
D1E
330
A
100
AcDbEntity
  8
1
  6
Continuous
100
AcDbLine
 10
455.9347268808578
 20
391.1838003926025
 30
0.0
 11
456.4193732068579
 21
399.1838003926025
 31
0.0
  0
LINE
  5
D1F
330
A
100
AcDbEntity
  8
1
  6
Continuous
100
AcDbLine
 10
509.123451267858
 20
391.1838003926025
 30
0.0
 11
507.7210167803575
 21
399.1838003926025
 31
0.0
  0
ARC
  5
D20
330
A
100
AcDbEntity
  8
1
  6
Continuous
100
AcDbCircle
 10
-7127.623966063642
 20
-879.6805033763975
 30
0.0
 40
7748.849511146001
100
AcDbArc
 50
9.439544516699944
 51
9.499514528299931
  0
LINE
  5
D21
330
A
100
AcDbEntity
  8
1
  6
Continuous
100
AcDbLine
 10
456.4193732068579
 20
399.1838003926025
 30
0.0
 11
449.6586460088578
 21
399.1838003926025
 31
0.0
  0
LINE
  5
D22
330
A
100
AcDbEntity
  8
1
  6
Continuous
100
AcDbLine
 10
442.4140913378578
 20
399.1838003926025
 30
0.0
 11
442.100447240358
 21
399.1838003926025
 31
0.0
  0
LINE
  5
D23
330
A
100
AcDbEntity
  8
1
  6
Continuous
100
AcDbLine
 10
450.6784749223579
 20
403.1838003926025
 30
0.0
 11
506.7011878668579
 21
403.1838003926025
 31
0.0
  0
LINE
  5
D24
330
A
100
AcDbEntity
  8
1
  6
Continuous
100
AcDbLine
 10
441.0797236983579
 20
391.1838003926025
 30
0.0
 11
440.689831394858
 21
391.1838003926025
 31
0.0
  0
LINE
  5
D25
330
A
100
AcDbEntity
  8
1
  6
Continuous
100
AcDbLine
 10
441.0797236983579
 20
391.1838003926025
 30
0.0
 11
442.4140913378578
 21
399.1838003926025
 31
0.0
  0
LINE
  5
D27
330
A
100
AcDbEntity
  8
1
  6
Continuous
100
AcDbLine
 10
766.6898313948578
 20
386.1838003926025
 30
0.0
 11
790.689831394858
 21
386.1838003926025
 31
0.0
  0
LINE
  5
D28
330
A
100
AcDbEntity
  8
1
  6
Continuous
100
AcDbLine
 10
792.6898313948579
 20
388.1838003926024
 30
0.0
 11
764.6898313948579
 21
388.1838003926024
 31
0.0
  0
LINE
  5
D29
330
A
100
AcDbEntity
  8
1
  6
Continuous
100
AcDbLine
 10
789.6898313948579
 20
407.1838003926025
 30
0.0
 11
767.6898313948579
 21
407.1838003926025
 31
0.0
  0
ARC
  5
D2A
330
A
100
AcDbEntity
  8
1
  6
Continuous
100
AcDbCircle
 10
766.6898313948578
 20
388.1838003926024
 30
0.0
 40
2.0
100
AcDbArc
 50
180.0
 51
270.0
  0
LINE
  5
D2B
330
A
100
AcDbEntity
  8
1
  6
Continuous
100
AcDbLine
 10
767.6898313948579
 20
407.1838003926025
 30
0.0
 11
764.6898313948579
 21
403.1838003926025
 31
0.0
  0
LINE
  5
D2C
330
A
100
AcDbEntity
  8
1
  6
Continuous
100
AcDbLine
 10
750.6784749223574
 20
403.1838003926025
 30
0.0
 11
742.1004472403579
 21
399.1838003926025
 31
0.0
  0
LINE
  5
D2D
330
A
100
AcDbEntity
  8
1
  6
Continuous
100
AcDbLine
 10
764.6898313948579
 20
391.1838003926025
 30
0.0
 11
764.6898313948579
 21
388.1838003926024
 31
0.0
  0
ARC
  5
D2E
330
A
100
AcDbEntity
  8
1
  6
Continuous
100
AcDbCircle
 10
790.689831394858
 20
388.1838003926024
 30
0.0
 40
2.0
100
AcDbArc
 50
270.0
 51
0.0
  0
LINE
  5
D2F
330
A
100
AcDbEntity
  8
1
  6
Continuous
100
AcDbLine
 10
792.6898313948579
 20
403.1838003926025
 30
0.0
 11
789.6898313948579
 21
407.1838003926025
 31
0.0
  0
LINE
  5
D30
330
A
100
AcDbEntity
  8
1
  6
Continuous
100
AcDbLine
 10
816.6898313948575
 20
391.1838003926025
 30
0.0
 11
815.279215548858
 21
399.1838003926025
 31
0.0
  0
LINE
  5
D31
330
A
100
AcDbEntity
  8
1
  6
Continuous
100
AcDbLine
 10
815.279215548858
 20
399.1838003926025
 30
0.0
 11
806.7011878668575
 21
403.1838003926025
 31
0.0
  0
LINE
  5
D32
330
A
100
AcDbEntity
  8
1
  6
Continuous
100
AcDbLine
 10
742.1004472403579
 20
399.1838003926025
 30
0.0
 11
740.689831394858
 21
391.1838003926025
 31
0.0
  0
LINE
  5
D33
330
A
100
AcDbEntity
  8
1
  6
Continuous
100
AcDbLine
 10
792.6898313948579
 20
388.1838003926024
 30
0.0
 11
792.6898313948579
 21
391.1838003926025
 31
0.0
  0
LINE
  5
D34
330
A
100
AcDbEntity
  8
1
  6
Continuous
100
AcDbLine
 10
814.9655714513579
 20
399.1838003926025
 30
0.0
 11
815.279215548858
 21
399.1838003926025
 31
0.0
  0
LINE
  5
D35
330
A
100
AcDbEntity
  8
1
  6
Continuous
100
AcDbLine
 10
807.7210167803579
 20
399.1838003926025
 30
0.0
 11
800.9602895823574
 21
399.1838003926025
 31
0.0
  0
LINE
  5
D36
330
A
100
AcDbEntity
  8
1
  6
Continuous
100
AcDbLine
 10
783.4703874423578
 20
399.1838003926025
 30
0.0
 11
773.9092753473573
 21
399.1838003926025
 31
0.0
  0
LINE
  5
D37
330
A
100
AcDbEntity
  8
1
  6
Continuous
100
AcDbLine
 10
801.4449359083574
 20
391.1838003926025
 30
0.0
 11
784.1193616748573
 21
391.1838003926025
 31
0.0
  0
LINE
  5
D38
330
A
100
AcDbEntity
  8
1
  6
Continuous
100
AcDbLine
 10
816.2999390913574
 20
391.1838003926025
 30
0.0
 11
809.1234512678578
 21
391.1838003926025
 31
0.0
  0
LINE
  5
D39
330
A
100
AcDbEntity
  8
1
  6
Continuous
100
AcDbLine
 10
773.2603011143579
 20
391.1838003926025
 30
0.0
 11
784.1193616748573
 21
391.1838003926025
 31
0.0
  0
LINE
  5
D3A
330
A
100
AcDbEntity
  8
1
  6
Continuous
100
AcDbLine
 10
801.4449359083574
 20
391.1838003926025
 30
0.0
 11
809.1234512678578
 21
391.1838003926025
 31
0.0
  0
LINE
  5
D3B
330
A
100
AcDbEntity
  8
1
  6
Continuous
100
AcDbLine
 10
748.2562115218574
 20
391.1838003926025
 30
0.0
 11
755.9347268808579
 21
391.1838003926025
 31
0.0
  0
LINE
  5
D3C
330
A
100
AcDbEntity
  8
1
  6
Continuous
100
AcDbLine
 10
816.2999390913574
 20
391.1838003926025
 30
0.0
 11
816.6898313948575
 21
391.1838003926025
 31
0.0
  0
SPLINE
  5
D3D
330
A
100
AcDbEntity
  8
1
  6
Continuous
100
AcDbSpline
210
0.0
220
0.0
230
1.0
 70
     8
 71
     3
 72
    14
 73
    10
 74
     0
 42
0.0000000001
 43
0.0000000001
 40
0.0
 40
0.0
 40
0.0
 40
0.0
 40
0.2499999999999999
 40
0.2499999999999999
 40
0.5
 40
0.5
 40
0.75
 40
0.75
 40
1.0
 40
1.0
 40
1.0
 40
1.0
 10
814.9655714515104
 20
399.1838003925918
 30
0.0
 10
813.8079102556853
 20
399.6519865617889
 30
0.0
 10
812.7617610403207
 20
400.0327100764383
 30
0.0
 10
810.9065383940084
 20
400.5637738547465
 30
0.0
 10
810.1019468603459
 20
400.7079819491278
 30
0.0
 10
808.8471326612278
 20
400.7081205386242
 30
0.0
 10
808.3777365333403
 20
400.5645214376472
 30
0.0
 10
807.7974497213499
 20
400.0330828145262
 30
0.0
 10
807.6801835262559
 20
399.65203934701
 30
0.0
 10
807.721016780405
 20
399.183800392592
 30
0.0
  0
ARC
  5
D3E
330
A
100
AcDbEntity
  8
1
  6
Continuous
100
AcDbCircle
 10
792.2153385123579
 20
374.9349160331024
 30
0.0
 40
25.7775592695
100
AcDbArc
 50
70.16901638120001
 51
109.8309836187999
  0
ARC
  5
D3F
330
A
100
AcDbEntity
  8
1
  6
Continuous
100
AcDbCircle
 10
765.164324276858
 20
374.9343319501024
 30
0.0
 40
25.7781087155
100
AcDbArc
 50
70.16945679559999
 51
109.8305432043999
  0
LINE
  5
D40
330
A
100
AcDbEntity
  8
1
  6
Continuous
100
AcDbLine
 10
773.2603011143579
 20
391.1838003926025
 30
0.0
 11
755.9347268808579
 21
391.1838003926025
 31
0.0
  0
SPLINE
  5
D41
330
A
100
AcDbEntity
  8
1
  6
Continuous
100
AcDbSpline
210
0.0
220
0.0
230
1.0
 70
     8
 71
     3
 72
    14
 73
    10
 74
     0
 42
0.0000000001
 43
0.0000000001
 40
0.0
 40
0.0
 40
0.0
 40
0.0
 40
0.25
 40
0.25
 40
0.5
 40
0.5
 40
0.75
 40
0.75
 40
1.0
 40
1.0
 40
1.0
 40
1.0
 10
749.6586460089559
 20
399.1838003925929
 30
0.0
 10
749.6994746599159
 20
399.6519865617897
 30
0.0
 10
749.5821955807338
 20
400.0327100764391
 30
0.0
 10
749.0031661458719
 20
400.5637738547472
 30
0.0
 10
748.5333110513034
 20
400.7079819491286
 30
0.0
 10
747.2788219055821
 20
400.708120538625
 30
0.0
 10
746.4761398327774
 20
400.564521437648
 30
0.0
 10
744.6188009004345
 20
400.0330828145268
 30
0.0
 10
743.571883053127
 20
399.6520393470109
 30
0.0
 10
742.414091337851
 20
399.1838003925929
 30
0.0
  0
ARC
  5
D42
330
A
100
AcDbEntity
  8
1
  6
Continuous
100
AcDbCircle
 10
-2290.346680855142
 20
207.8952996106025
 30
0.0
 40
3097.219733246
100
AcDbArc
 50
3.392654614599943
 51
3.540918781499962
  0
LINE
  5
D43
330
A
100
AcDbEntity
  8
1
  6
Continuous
100
AcDbLine
 10
784.1193616748573
 20
391.1838003926025
 30
0.0
 11
783.4703874423578
 21
399.1838003926025
 31
0.0
  0
ARC
  5
D44
330
A
100
AcDbEntity
  8
1
  6
Continuous
100
AcDbCircle
 10
-6915.947807310637
 20
1738.874731008601
 30
0.0
 40
7781.792472608501
100
AcDbArc
 50
350.0269374223
 51
350.0867380564999
  0
LINE
  5
D45
330
A
100
AcDbEntity
  8
1
  6
Continuous
100
AcDbLine
 10
748.2562115218574
 20
391.1838003926025
 30
0.0
 11
741.0797236983578
 21
391.1838003926025
 31
0.0
  0
ARC
  5
D46
330
A
100
AcDbEntity
  8
1
  6
Continuous
100
AcDbCircle
 10
-2326.931379399141
 20
646.7031879876026
 30
0.0
 40
3110.703877479
100
AcDbArc
 50
355.2883022972
 51
355.4361376758997
  0
LINE
  5
D47
330
A
100
AcDbEntity
  8
1
  6
Continuous
100
AcDbLine
 10
755.9347268808579
 20
391.1838003926025
 30
0.0
 11
756.4193732068579
 21
399.1838003926025
 31
0.0
  0
LINE
  5
D48
330
A
100
AcDbEntity
  8
1
  6
Continuous
100
AcDbLine
 10
809.1234512678578
 20
391.1838003926025
 30
0.0
 11
807.7210167803579
 21
399.1838003926025
 31
0.0
  0
ARC
  5
D49
330
A
100
AcDbEntity
  8
1
  6
Continuous
100
AcDbCircle
 10
-6827.623966097641
 20
-879.6805033818971
 30
0.0
 40
7748.849511180996
100
AcDbArc
 50
9.439544516699944
 51
9.499514528299931
  0
LINE
  5
D4A
330
A
100
AcDbEntity
  8
1
  6
Continuous
100
AcDbLine
 10
756.4193732068579
 20
399.1838003926025
 30
0.0
 11
749.6586460088579
 21
399.1838003926025
 31
0.0
  0
LINE
  5
D4B
330
A
100
AcDbEntity
  8
1
  6
Continuous
100
AcDbLine
 10
742.4140913378579
 20
399.1838003926025
 30
0.0
 11
742.1004472403579
 21
399.1838003926025
 31
0.0
  0
LINE
  5
D4C
330
A
100
AcDbEntity
  8
1
  6
Continuous
100
AcDbLine
 10
750.6784749223574
 20
403.1838003926025
 30
0.0
 11
806.7011878668575
 21
403.1838003926025
 31
0.0
  0
LINE
  5
D4D
330
A
100
AcDbEntity
  8
1
  6
Continuous
100
AcDbLine
 10
741.0797236983578
 20
391.1838003926025
 30
0.0
 11
740.689831394858
 21
391.1838003926025
 31
0.0
  0
LINE
  5
D4E
330
A
100
AcDbEntity
  8
1
  6
Continuous
100
AcDbLine
 10
741.0797236983578
 20
391.1838003926025
 30
0.0
 11
742.4140913378579
 21
399.1838003926025
 31
0.0
  0
LINE
  5
D50
330
A
100
AcDbEntity
  8
1
  6
Continuous
100
AcDbLine
 10
553.189831394858
 20
412.6838003926025
 30
0.0
 11
553.189831394858
 21
412.1838003926026
 31
0.0
  0
LINE
  5
D51
330
A
100
AcDbEntity
  8
1
  6
Continuous
100
AcDbLine
 10
561.1898313948579
 20
412.1838003926026
 30
0.0
 11
561.1898313948579
 21
414.1838003926024
 31
0.0
  0
LINE
  5
D52
330
A
100
AcDbEntity
  8
1
  6
Continuous
100
AcDbLine
 10
553.189831394858
 20
412.1838003926026
 30
0.0
 11
561.1898313948579
 21
412.1838003926026
 31
0.0
  0
LINE
  5
D53
330
A
100
AcDbEntity
  8
1
  6
Continuous
100
AcDbLine
 10
553.9548313948579
 20
412.6838003926025
 30
0.0
 11
553.9548313948579
 21
412.1838003926026
 31
0.0
  0
LINE
  5
D54
330
A
100
AcDbEntity
  8
1
  6
Continuous
100
AcDbLine
 10
560.424831394858
 20
414.1838003926024
 30
0.0
 11
560.424831394858
 21
412.1838003926026
 31
0.0
  0
LINE
  5
D55
330
A
100
AcDbEntity
  8
1
  6
Continuous
100
AcDbLine
 10
563.6898313948579
 20
414.1838003926024
 30
0.0
 11
560.4398313948579
 21
414.1838003926024
 31
0.0
  0
LINE
  5
D56
330
A
100
AcDbEntity
  8
1
  6
Continuous
100
AcDbLine
 10
563.6898313948579
 20
414.7643569761025
 30
0.0
 11
563.6898313948579
 21
414.1838003926024
 31
0.0
  0
LINE
  5
D57
330
A
100
AcDbEntity
  8
1
  6
Continuous
100
AcDbLine
 10
563.6898313948579
 20
414.7643569761025
 30
0.0
 11
563.6898313948579
 21
415.1838003926025
 31
0.0
  0
ARC
  5
D58
330
A
100
AcDbEntity
  8
1
  6
Continuous
100
AcDbCircle
 10
560.2992311578574
 20
424.3580433691025
 30
0.0
 40
10.17521442399999
100
AcDbArc
 50
270.7917333446
 51
289.4644246558
  0
LINE
  5
D59
330
A
100
AcDbEntity
  8
1
  6
Continuous
100
AcDbLine
 10
560.4398313948579
 20
414.1838003926024
 30
0.0
 11
557.6898313948579
 21
414.1838003926024
 31
0.0
  0
ARC
  5
D5A
330
A
100
AcDbEntity
  8
1
  6
Continuous
100
AcDbCircle
 10
560.5540667358578
 20
424.2104506746025
 30
0.0
 40
10.0273010125
100
AcDbArc
 50
253.3641158013999
 51
269.3472476279999
  0
LINE
  5
D5B
330
A
100
AcDbEntity
  8
1
  6
Continuous
100
AcDbLine
 10
793.6898313948579
 20
422.1838003926026
 30
0.0
 11
793.6898313948579
 21
420.1838003926025
 31
0.0
  0
ARC
  5
D5C
330
A
100
AcDbEntity
  8
1
  6
Continuous
100
AcDbCircle
 10
788.6898313948579
 20
437.1838003926026
 30
0.0
 40
5.0
100
AcDbArc
 50
0.0
 51
90.0
  0
LINE
  5
D5D
330
A
100
AcDbEntity
  8
1
  6
Continuous
100
AcDbLine
 10
739.6898313948579
 20
420.1838003926025
 30
0.0
 11
773.689831394858
 21
420.1838003926025
 31
0.0
  0
LINE
  5
D5E
330
A
100
AcDbEntity
  8
1
  6
Continuous
100
AcDbLine
 10
773.689831394858
 20
422.1838003926026
 30
0.0
 11
739.6898313948579
 21
422.1838003926026
 31
0.0
  0
LINE
  5
D5F
330
A
100
AcDbEntity
  8
1
  6
Continuous
100
AcDbLine
 10
746.1898313948579
 20
442.1838003926025
 30
0.0
 11
788.6898313948579
 21
442.1838003926025
 31
0.0
  0
LINE
  5
D60
330
A
100
AcDbEntity
  8
1
  6
Continuous
100
AcDbLine
 10
793.6898313948579
 20
437.1838003926026
 30
0.0
 11
793.6898313948579
 21
422.1838003926026
 31
0.0
  0
LINE
  5
D61
330
A
100
AcDbEntity
  8
1
  6
Continuous
100
AcDbLine
 10
793.6898313948579
 20
420.1838003926025
 30
0.0
 11
773.689831394858
 21
420.1838003926025
 31
0.0
  0
LINE
  5
D63
330
A
100
AcDbEntity
  8
1
  6
Continuous
100
AcDbLine
 10
773.689831394858
 20
422.1838003926026
 30
0.0
 11
793.6898313948579
 21
422.1838003926026
 31
0.0
  0
LINE
  5
D64
330
A
100
AcDbEntity
  8
1
  6
Continuous
100
AcDbLine
 10
740.1898313948579
 20
422.6838003926024
 30
0.0
 11
757.189831394858
 21
422.6838003926024
 31
0.0
  0
LINE
  5
D65
330
A
100
AcDbEntity
  8
1
  6
Continuous
100
AcDbLine
 10
755.5898313948578
 20
415.6838003926025
 30
0.0
 11
755.5898313948578
 21
420.1838003926025
 31
0.0
  0
LINE
  5
D66
330
A
100
AcDbEntity
  8
1
  6
Continuous
100
AcDbLine
 10
741.7898313948578
 20
415.6838003926025
 30
0.0
 11
755.5898313948578
 21
415.6838003926025
 31
0.0
  0
LINE
  5
D67
330
A
100
AcDbEntity
  8
1
  6
Continuous
100
AcDbLine
 10
757.189831394858
 20
422.6838003926024
 30
0.0
 11
756.6898313948578
 21
423.1838003926025
 31
0.0
  0
LINE
  5
D68
330
A
100
AcDbEntity
  8
1
  6
Continuous
100
AcDbLine
 10
756.6898313948578
 20
423.1838003926025
 30
0.0
 11
740.689831394858
 21
423.1838003926025
 31
0.0
  0
LINE
  5
D69
330
A
100
AcDbEntity
  8
1
  6
Continuous
100
AcDbLine
 10
757.189831394858
 20
422.1838003926026
 30
0.0
 11
757.189831394858
 21
422.6838003926024
 31
0.0
  0
LINE
  5
D6A
330
A
100
AcDbEntity
  8
1
  6
Continuous
100
AcDbLine
 10
741.7898313948578
 20
420.1838003926025
 30
0.0
 11
741.7898313948578
 21
415.6838003926025
 31
0.0
  0
LINE
  5
D6B
330
A
100
AcDbEntity
  8
1
  6
Continuous
100
AcDbLine
 10
740.689831394858
 20
423.1838003926025
 30
0.0
 11
740.1898313948579
 21
422.6838003926024
 31
0.0
  0
LINE
  5
D6C
330
A
100
AcDbEntity
  8
1
  6
Continuous
100
AcDbLine
 10
740.1898313948579
 20
422.6838003926024
 30
0.0
 11
740.1898313948579
 21
422.1838003926026
 31
0.0
  0
CIRCLE
  5
D6D
330
A
100
AcDbEntity
  8
1
  6
Continuous
100
AcDbCircle
 10
788.6898313948579
 20
431.1838003926025
 30
0.0
 40
3.799999999999999
  0
CIRCLE
  5
D6E
330
A
100
AcDbEntity
  8
1
  6
Continuous
100
AcDbCircle
 10
788.6898313948579
 20
431.1838003926025
 30
0.0
 40
4.0
  0
LINE
  5
D6F
330
A
100
AcDbEntity
  8
1
  6
Continuous
100
AcDbLine
 10
789.0311371118579
 20
430.1838003926024
 30
0.0
 11
789.0311371118579
 21
429.5424946751025
 31
0.0
  0
LINE
  5
D70
330
A
100
AcDbEntity
  8
1
  6
Continuous
100
AcDbLine
 10
789.6898313948579
 20
431.5251061101021
 30
0.0
 11
790.3311371118575
 21
431.5251061101021
 31
0.0
  0
ARC
  5
D74
330
A
100
AcDbEntity
  8
1
  6
Continuous
100
AcDbCircle
 10
788.6898313948579
 20
481.0097909456025
 30
0.0
 40
51.69711441849999
100
AcDbArc
 50
269.3704706145
 51
270.6295293855
  0
ELLIPSE
  5
D75
330
A
100
AcDbEntity
  8
1
  6
Continuous
100
AcDbEllipse
 10
787.7382699478574
 20
431.1838003926025
 30
0.0
 11
0.00000000001224
 21
-8.947981822175144
 31
0.0
210
0.0
220
0.0
230
1.0
 40
0.1736481777
 41
1.360486879258366
 42
1.458805331149765
  0
ARC
  5
D76
330
A
100
AcDbEntity
  8
1
  6
Continuous
100
AcDbCircle
 10
789.6979065098573
 20
430.1757252771021
 30
0.0
 40
0.4156479645
100
AcDbArc
 50
91.11319957139997
 51
178.8868004285999
  0
ARC
  5
D77
330
A
100
AcDbEntity
  8
1
  6
Continuous
100
AcDbCircle
 10
789.6898313948579
 20
430.1838003926024
 30
0.0
 40
0.6586942825
100
AcDbArc
 50
90.0
 51
180.0
  0
ELLIPSE
  5
D78
330
A
100
AcDbEntity
  8
1
  6
Continuous
100
AcDbEllipse
 10
787.7382699478574
 20
431.1838003926025
 30
0.0
 11
-0.0000000000053015
 21
8.94798182182127
 31
0.0
210
0.0
220
0.0
230
1.0
 40
0.1736481777
 41
4.824379976021516
 42
4.914933700067372
  0
LINE
  5
D79
330
A
100
AcDbEntity
  8
1
  6
Continuous
100
AcDbLine
 10
789.0311371118579
 20
432.1838003926025
 30
0.0
 11
789.2823369933578
 21
432.1838003926025
 31
0.0
  0
ARC
  5
D7A
330
A
100
AcDbEntity
  8
1
  6
Continuous
100
AcDbCircle
 10
787.6898313948579
 20
432.1838003926025
 30
0.0
 40
0.6586942825
100
AcDbArc
 50
270.0
 51
0.0
  0
ELLIPSE
  5
D7B
330
A
100
AcDbEntity
  8
1
  6
Continuous
100
AcDbEllipse
 10
789.6413928413575
 20
431.1838003926025
 30
0.0
 11
0.0000000000040245
 21
8.947981821846166
 31
0.0
210
0.0
220
0.0
230
1.0
 40
0.1736481777
 41
1.368251607111251
 42
1.458805331156949
  0
ARC
  5
D7C
330
A
100
AcDbEntity
  8
1
  6
Continuous
100
AcDbCircle
 10
787.6817562793574
 20
432.191875508102
 30
0.0
 40
0.4156479645
100
AcDbArc
 50
271.1131995713999
 51
358.8868004285998
  0
ARC
  5
D7D
330
A
100
AcDbEntity
  8
1
  6
Continuous
100
AcDbCircle
 10
838.5158219478574
 20
431.1838003926025
 30
0.0
 40
51.69711441849999
100
AcDbArc
 50
179.3704706145
 51
180.6295293854999
  0
ARC
  5
D7E
330
A
100
AcDbEntity
  8
1
  6
Continuous
100
AcDbCircle
 10
738.8638408418573
 20
431.1838003926025
 30
0.0
 40
51.69711441849999
100
AcDbArc
 50
359.3704706145
 51
0.6295293854999742
  0
ELLIPSE
  5
D7F
330
A
100
AcDbEntity
  8
1
  6
Continuous
100
AcDbEllipse
 10
788.6898313948579
 20
430.232238946102
 30
0.0
 11
8.9479818215227
 21
-0.000000000022902
 31
0.0
210
0.0
220
0.0
230
1.0
 40
0.1736481777
 41
1.360486879266576
 42
1.458805331165014
  0
ARC
  5
D80
330
A
100
AcDbEntity
  8
1
  6
Continuous
100
AcDbCircle
 10
789.6979065098573
 20
432.191875508102
 30
0.0
 40
0.4156479645
100
AcDbArc
 50
181.1131995713999
 51
268.8868004285998
  0
ELLIPSE
  5
D81
330
A
100
AcDbEntity
  8
1
  6
Continuous
100
AcDbEllipse
 10
788.6898313948579
 20
430.2322389456024
 30
0.0
 11
-8.947981822197215
 21
0.000000000015408
 31
0.0
210
0.0
220
0.0
230
1.0
 40
0.1736481777
 41
4.824379976031144
 42
4.922698427922311
  0
LINE
  5
D82
330
A
100
AcDbEntity
  8
1
  6
Continuous
100
AcDbLine
 10
789.6898313948579
 20
431.776305991602
 30
0.0
 11
789.6898313948579
 21
431.5251061101021
 31
0.0
  0
LINE
  5
D83
330
A
100
AcDbEntity
  8
1
  6
Continuous
100
AcDbLine
 10
787.0485256773579
 20
430.8424946751024
 30
0.0
 11
787.0485256773579
 21
431.5251061101021
 31
0.0
  0
ARC
  5
D84
330
A
100
AcDbEntity
  8
1
  6
Continuous
100
AcDbCircle
 10
789.6898313948579
 20
432.1838003926025
 30
0.0
 40
0.6586942825
100
AcDbArc
 50
180.0
 51
270.0
  0
LINE
  5
D85
330
A
100
AcDbEntity
  8
1
  6
Continuous
100
AcDbLine
 10
789.2823369933578
 20
430.1838003926024
 30
0.0
 11
789.0311371118579
 21
430.1838003926024
 31
0.0
  0
LINE
  5
D86
330
A
100
AcDbEntity
  8
1
  6
Continuous
100
AcDbLine
 10
789.6898313948579
 20
430.8424946751024
 30
0.0
 11
789.6898313948579
 21
430.5912947936024
 31
0.0
  0
LINE
  5
D87
330
A
100
AcDbEntity
  8
1
  6
Continuous
100
AcDbLine
 10
789.0311371118579
 20
429.5424946751025
 30
0.0
 11
789.2578347998574
 21
429.3157969876025
 31
0.0
  0
LINE
  5
D88
330
A
100
AcDbEntity
  8
1
  6
Continuous
100
AcDbLine
 10
788.3485256773578
 20
429.5424946751025
 30
0.0
 11
788.1218279893579
 21
429.3157969876025
 31
0.0
  0
LINE
  5
D89
330
A
100
AcDbEntity
  8
1
  6
Continuous
100
AcDbLine
 10
788.0973257958573
 20
432.1838003926025
 30
0.0
 11
788.3485256773578
 21
432.1838003926025
 31
0.0
  0
ARC
  5
D8A
330
A
100
AcDbEntity
  8
1
  6
Continuous
100
AcDbCircle
 10
787.6898313948579
 20
430.1838003926024
 30
0.0
 40
0.6586942825
100
AcDbArc
 50
0.0
 51
90.0
  0
ELLIPSE
  5
D8B
330
A
100
AcDbEntity
  8
1
  6
Continuous
100
AcDbEllipse
 10
788.6898313943579
 20
432.1353618396021
 30
0.0
 11
8.947981822221896
 21
-0.0000000000167225
 31
0.0
210
0.0
220
0.0
230
1.0
 40
0.1736481777
 41
4.824379976031755
 42
4.922698427922641
  0
LINE
  5
D8C
330
A
100
AcDbEntity
  8
1
  6
Continuous
100
AcDbLine
 10
788.1193551358578
 20
432.9838003926025
 30
0.0
 11
789.2603076533579
 21
432.9838003926025
 31
0.0
  0
LINE
  5
D8D
330
A
100
AcDbEntity
  8
1
  6
Continuous
100
AcDbLine
 10
790.3311371118575
 20
431.5251061101021
 30
0.0
 11
790.5578347998573
 21
431.7518037976025
 31
0.0
  0
LINE
  5
D8E
330
A
100
AcDbEntity
  8
1
  6
Continuous
100
AcDbLine
 10
787.0485256773579
 20
431.5251061101021
 30
0.0
 11
786.821827989358
 21
431.7518037976025
 31
0.0
  0
LINE
  5
D8F
330
A
100
AcDbEntity
  8
1
  6
Continuous
100
AcDbLine
 10
790.3311371118575
 20
430.8424946751024
 30
0.0
 11
790.5578347998573
 21
430.6157969876021
 31
0.0
  0
LINE
  5
D90
330
A
100
AcDbEntity
  8
1
  6
Continuous
100
AcDbLine
 10
788.3485256773578
 20
430.1838003926024
 30
0.0
 11
788.0973257958573
 21
430.1838003926024
 31
0.0
  0
LINE
  5
D91
330
A
100
AcDbEntity
  8
1
  6
Continuous
100
AcDbLine
 10
787.6898313948579
 20
430.5912947936024
 30
0.0
 11
787.6898313948579
 21
430.8424946751024
 31
0.0
  0
ELLIPSE
  5
D92
330
A
100
AcDbEntity
  8
1
  6
Continuous
100
AcDbEllipse
 10
788.6898313948579
 20
432.1353618396021
 30
0.0
 11
-8.947981822133661
 21
-0.0000000000115325
 31
0.0
210
0.0
220
0.0
230
1.0
 40
0.1736481777
 41
1.360486879258072
 42
1.458805331149922
  0
ELLIPSE
  5
D93
330
A
100
AcDbEntity
  8
1
  6
Continuous
100
AcDbEllipse
 10
789.6413928413575
 20
431.1838003926025
 30
0.0
 11
-0.000000000009853
 21
-8.947981822134483
 31
0.0
210
0.0
220
0.0
230
1.0
 40
0.1736481777
 41
4.824379976029117
 42
4.922698427920971
  0
LINE
  5
D94
330
A
100
AcDbEntity
  8
1
  6
Continuous
100
AcDbLine
 10
787.0485256773579
 20
430.8424946751024
 30
0.0
 11
786.821827989358
 21
430.6157969876021
 31
0.0
  0
ARC
  5
D95
330
A
100
AcDbEntity
  8
1
  6
Continuous
100
AcDbCircle
 10
787.6817562793574
 20
430.1757252771021
 30
0.0
 40
0.4156479645
100
AcDbArc
 50
1.113199571399937
 51
88.8868004286
  0
LINE
  5
D96
330
A
100
AcDbEntity
  8
1
  6
Continuous
100
AcDbLine
 10
787.6898313948579
 20
431.5251061101021
 30
0.0
 11
787.6898313948579
 21
431.776305991602
 31
0.0
  0
LINE
  5
D97
330
A
100
AcDbEntity
  8
1
  6
Continuous
100
AcDbLine
 10
787.0485256773579
 20
431.5251061101021
 30
0.0
 11
787.6898313948579
 21
431.5251061101021
 31
0.0
  0
LINE
  5
D98
330
A
100
AcDbEntity
  8
1
  6
Continuous
100
AcDbLine
 10
787.6898313948579
 20
430.8424946751024
 30
0.0
 11
787.0485256773579
 21
430.8424946751024
 31
0.0
  0
LINE
  5
D99
330
A
100
AcDbEntity
  8
1
  6
Continuous
100
AcDbLine
 10
789.0311371118579
 20
432.9838003926025
 30
0.0
 11
789.0311371118579
 21
432.1838003926025
 31
0.0
  0
LINE
  5
D9A
330
A
100
AcDbEntity
  8
1
  6
Continuous
100
AcDbLine
 10
790.3311371118575
 20
430.8424946751024
 30
0.0
 11
789.6898313948579
 21
430.8424946751024
 31
0.0
  0
LINE
  5
D9B
330
A
100
AcDbEntity
  8
1
  6
Continuous
100
AcDbLine
 10
788.3485256773578
 20
432.1838003926025
 30
0.0
 11
788.3485256773578
 21
432.9838003926025
 31
0.0
  0
LINE
  5
D9C
330
A
100
AcDbEntity
  8
1
  6
Continuous
100
AcDbLine
 10
790.3311371118575
 20
431.5251061101021
 30
0.0
 11
790.3311371118575
 21
430.8424946751024
 31
0.0
  0
LINE
  5
D9D
330
A
100
AcDbEntity
  8
1
  6
Continuous
100
AcDbLine
 10
788.3485256773578
 20
429.5424946751025
 30
0.0
 11
788.3485256773578
 21
430.1838003926024
 31
0.0
  0
LINE
  5
D9E
330
A
100
AcDbEntity
  8
1
  6
Continuous
100
AcDbLine
 10
789.0311371118579
 20
429.5424946751025
 30
0.0
 11
788.3485256773578
 21
429.5424946751025
 31
0.0
  0
LINE
  5
D9F
330
A
100
AcDbEntity
  8
1
  6
Continuous
100
AcDbLine
 10
807.189831394858
 20
503.6838003926026
 30
0.0
 11
773.689831394858
 21
503.6838003926026
 31
0.0
  0
LINE
  5
DA0
330
A
100
AcDbEntity
  8
1
  6
Continuous
100
AcDbLine
 10
438.689831394858
 20
443.6838003926025
 30
0.0
 11
438.689831394858
 21
492.1838003926025
 31
0.0
  0
LINE
  5
DA1
330
A
100
AcDbEntity
  8
1
  6
Continuous
100
AcDbLine
 10
818.6898313948574
 20
492.1838003926025
 30
0.0
 11
818.6898313948574
 21
443.6838003926025
 31
0.0
  0
ARC
  5
DA2
330
A
100
AcDbEntity
  8
1
  6
Continuous
100
AcDbCircle
 10
807.189831394858
 20
492.1838003926025
 30
0.0
 40
11.49999999999999
100
AcDbArc
 50
0.0
 51
90.0
  0
LINE
  5
DA5
330
A
100
AcDbEntity
  8
1
  6
Continuous
100
AcDbLine
 10
483.6898313948579
 20
443.6838003926025
 30
0.0
 11
438.689831394858
 21
443.6838003926025
 31
0.0
  0
LINE
  5
DA6
330
A
100
AcDbEntity
  8
1
  6
Continuous
100
AcDbLine
 10
483.6898313948579
 20
503.6838003926026
 30
0.0
 11
450.1898313948579
 21
503.6838003926026
 31
0.0
  0
ARC
  5
DA9
330
A
100
AcDbEntity
  8
1
  6
Continuous
100
AcDbCircle
 10
450.1898313948579
 20
492.1838003926025
 30
0.0
 40
11.49999999999999
100
AcDbArc
 50
90.0
 51
180.0
  0
LINE
  5
DAC
330
A
100
AcDbEntity
  8
1
  6
Continuous
100
AcDbLine
 10
483.6898313948579
 20
503.6838003926026
 30
0.0
 11
773.689831394858
 21
503.6838003926026
 31
0.0
  0
LINE
  5
DAE
330
A
100
AcDbEntity
  8
1
  6
Continuous
100
AcDbLine
 10
818.6898313948574
 20
443.6838003926025
 30
0.0
 11
773.689831394858
 21
443.6838003926025
 31
0.0
  0
LINE
  5
DB0
330
A
100
AcDbEntity
  8
1
  6
Continuous
100
AcDbLine
 10
483.6898313948579
 20
443.6838003926025
 30
0.0
 11
523.9687326938578
 21
443.6838003926025
 31
0.0
  0
LINE
  5
DB1
330
A
100
AcDbEntity
  8
1
  6
Continuous
100
AcDbLine
 10
746.1898313948579
 20
443.6838003926025
 30
0.0
 11
773.689831394858
 21
443.6838003926025
 31
0.0
  0
LINE
  5
DB2
330
A
100
AcDbEntity
  8
1
  6
Continuous
100
AcDbLine
 10
676.6898313948574
 20
415.1838003926025
 30
0.0
 11
676.6898313948574
 21
412.1838003926026
 31
0.0
  0
LINE
  5
DB3
330
A
100
AcDbEntity
  8
1
  6
Continuous
100
AcDbLine
 10
585.6898313948579
 20
415.1838003926025
 30
0.0
 11
585.6898313948579
 21
412.1838003926026
 31
0.0
  0
LINE
  5
DB4
330
A
100
AcDbEntity
  8
1
  6
Continuous
100
AcDbLine
 10
585.6898313948579
 20
412.1838003926026
 30
0.0
 11
580.6898313948579
 21
412.1838003926026
 31
0.0
  0
LINE
  5
DB5
330
A
100
AcDbEntity
  8
1
  6
Continuous
100
AcDbLine
 10
580.6898313948579
 20
412.1838003926026
 30
0.0
 11
580.6898313948579
 21
415.1838003926025
 31
0.0
  0
LINE
  5
DB6
330
A
100
AcDbEntity
  8
1
  6
Continuous
100
AcDbLine
 10
671.6898313948575
 20
412.1838003926026
 30
0.0
 11
671.6898313948575
 21
415.1838003926025
 31
0.0
  0
LINE
  5
DB7
330
A
100
AcDbEntity
  8
1
  6
Continuous
100
AcDbLine
 10
676.6898313948574
 20
412.1838003926026
 30
0.0
 11
671.6898313948575
 21
412.1838003926026
 31
0.0
  0
LINE
  5
DB8
330
A
100
AcDbEntity
  8
1
  6
Continuous
100
AcDbLine
 10
585.6898313948579
 20
412.1838003926026
 30
0.0
 11
671.6898313948575
 21
412.1838003926026
 31
0.0
  0
ARC
  5
DB9
330
A
100
AcDbEntity
  8
1
  6
Continuous
100
AcDbCircle
 10
608.6898313948579
 20
419.9838003926025
 30
0.0
 40
13.99999999999999
100
AcDbArc
 50
284.1001528452998
 51
285.3624850368
  0
LINE
  5
DBA
330
A
100
AcDbEntity
  8
1
  6
Continuous
100
AcDbLine
 10
602.4398313948579
 20
411.3838003926025
 30
0.0
 11
614.9398313948579
 21
411.3838003926025
 31
0.0
  0
LINE
  5
DBB
330
A
100
AcDbEntity
  8
1
  6
Continuous
100
AcDbLine
 10
602.5898313948579
 20
409.8838003926024
 30
0.0
 11
614.7898313948579
 21
409.8838003926024
 31
0.0
  0
LINE
  5
DBC
330
A
100
AcDbEntity
  8
1
  6
Continuous
100
AcDbLine
 10
613.7881915203578
 20
408.1505486981024
 30
0.0
 11
603.591471268858
 21
408.1505486981024
 31
0.0
  0
LINE
  5
DBD
330
A
100
AcDbEntity
  8
1
  6
Continuous
100
AcDbLine
 10
604.9808840568579
 20
406.4840333706024
 30
0.0
 11
612.3987787328574
 21
406.4840333706024
 31
0.0
  0
ARC
  5
DBE
330
A
100
AcDbEntity
  8
1
  6
Continuous
100
AcDbCircle
 10
608.6898313948579
 20
420.5845605226025
 30
0.0
 40
14.17895969399999
100
AcDbArc
 50
266.9392587521
 51
273.0607412479
  0
LINE
  5
DBF
330
A
100
AcDbEntity
  8
1
  6
Continuous
100
AcDbLine
 10
607.8654104308574
 20
406.0439176786024
 30
0.0
 11
607.9327513923573
 21
406.4258272501025
 31
0.0
  0
SPLINE
  5
DC0
330
A
100
AcDbEntity
  8
1
  6
Continuous
100
AcDbSpline
210
0.0
220
0.0
230
1.0
 70
     8
 71
     3
 72
    10
 73
     6
 74
     0
 42
0.0000000001
 43
0.0000000001
 40
0.0
 40
0.0
 40
0.0
 40
0.0
 40
0.5
 40
0.5
 40
1.0
 40
1.0
 40
1.0
 40
1.0
 10
607.6898313946803
 20
406.0439176787953
 30
0.0
 10
607.7359656155558
 20
406.0406423219751
 30
0.0
 10
607.780965401369
 20
406.0387835985475
 30
0.0
 10
607.8456318936614
 20
406.0387802337983
 30
0.0
 10
607.864832885709
 20
406.0406422572606
 30
0.0
 10
607.8654104308983
 20
406.0439176787953
 30
0.0
  0
LINE
  5
DC1
330
A
100
AcDbEntity
  8
1
  6
Continuous
100
AcDbLine
 10
612.100477781858
 20
406.4056012771024
 30
0.0
 11
612.0969113968574
 21
406.4258272501025
 31
0.0
  0
LINE
  5
DC2
330
A
100
AcDbEntity
  8
1
  6
Continuous
100
AcDbLine
 10
605.2827513923574
 20
406.4258272501025
 30
0.0
 11
605.2791850078574
 21
406.4056012771024
 31
0.0
  0
ELLIPSE
  5
DC3
330
A
100
AcDbEntity
  8
1
  6
Continuous
100
AcDbEllipse
 10
608.6898313948579
 20
419.7044457841025
 30
0.0
 11
-13.90726280017395
 21
0.0000000003545845
 31
0.0
210
0.0
220
0.0
230
1.0
 40
0.9848077529999999
 41
1.323291421606301
 42
1.498829344963852
  0
ARC
  5
DC4
330
A
100
AcDbEntity
  8
1
  6
Continuous
100
AcDbCircle
 10
608.6898313948579
 20
419.9838003926025
 30
0.0
 40
13.64102268899999
100
AcDbArc
 50
266.7728773186
 51
273.2271226813999
  0
ELLIPSE
  5
DC5
330
A
100
AcDbEntity
  8
1
  6
Continuous
100
AcDbEllipse
 10
608.6898313948579
 20
419.7044457841025
 30
0.0
 11
13.90726280022458
 21
0.000000000465461
 31
0.0
210
0.0
220
0.0
230
1.0
 40
0.9848077529999999
 41
4.784355962208736
 42
4.959893885565615
  0
LINE
  5
DC6
330
A
100
AcDbEntity
  8
1
  6
Continuous
100
AcDbLine
 10
609.4469113968578
 20
406.4258272501025
 30
0.0
 11
609.5142523583574
 21
406.0439176786024
 31
0.0
  0
ARC
  5
DC7
330
A
100
AcDbEntity
  8
1
  6
Continuous
100
AcDbCircle
 10
611.8954215938579
 20
408.3161446096025
 30
0.0
 40
1.9
100
AcDbArc
 50
285.3624850368
 51
355.0
  0
SPLINE
  5
DC8
330
A
100
AcDbEntity
  8
1
  6
Continuous
100
AcDbSpline
210
0.0
220
0.0
230
1.0
 70
     8
 71
     3
 72
    10
 73
     6
 74
     0
 42
0.0000000001
 43
0.0000000001
 40
0.0
 40
0.0
 40
0.0
 40
0.0
 40
0.5
 40
0.5
 40
1.0
 40
1.0
 40
1.0
 40
1.0
 10
609.5142523584623
 20
406.0439176787953
 30
0.0
 10
609.5148298922414
 20
406.0406423219751
 30
0.0
 10
609.5339632471404
 20
406.0387835985475
 30
0.0
 10
609.5985829215774
 20
406.0387802337983
 30
0.0
 10
609.6436962622889
 20
406.0406422572605
 30
0.0
 10
609.6898313946804
 20
406.0439176787953
 30
0.0
  0
LINE
  5
DC9
330
A
100
AcDbEntity
  8
1
  6
Continuous
100
AcDbLine
 10
602.5898313948579
 20
411.3838003926025
 30
0.0
 11
602.5898313948579
 21
409.8838003926024
 31
0.0
  0
LINE
  5
DCA
330
A
100
AcDbEntity
  8
1
  6
Continuous
100
AcDbLine
 10
602.4398313948579
 20
412.1838003926026
 30
0.0
 11
602.4398313948579
 21
411.3838003926025
 31
0.0
  0
LINE
  5
DCB
330
A
100
AcDbEntity
  8
1
  6
Continuous
100
AcDbLine
 10
613.7881915203578
 20
408.1505486981024
 30
0.0
 11
613.9398313948579
 21
409.8838003926024
 31
0.0
  0
ARC
  5
DCC
330
A
100
AcDbEntity
  8
1
  6
Continuous
100
AcDbCircle
 10
608.6898313948579
 20
419.9838003926025
 30
0.0
 40
13.99999999999999
100
AcDbArc
 50
254.6375149632
 51
255.8998471547
  0
ARC
  5
DCD
330
A
100
AcDbEntity
  8
1
  6
Continuous
100
AcDbCircle
 10
605.4842411953575
 20
408.3161446096025
 30
0.0
 40
1.9
100
AcDbArc
 50
184.9999999999999
 51
254.6375149632
  0
LINE
  5
DCE
330
A
100
AcDbEntity
  8
1
  6
Continuous
100
AcDbLine
 10
614.7898313948579
 20
409.8838003926024
 30
0.0
 11
614.7898313948579
 21
411.3838003926025
 31
0.0
  0
LINE
  5
DCF
330
A
100
AcDbEntity
  8
1
  6
Continuous
100
AcDbLine
 10
614.9398313948579
 20
411.3838003926025
 30
0.0
 11
614.9398313948579
 21
412.1838003926026
 31
0.0
  0
LINE
  5
DD0
330
A
100
AcDbEntity
  8
1
  6
Continuous
100
AcDbLine
 10
603.4398313948579
 20
409.8838003926024
 30
0.0
 11
603.591471268858
 21
408.1505486981024
 31
0.0
  0
ARC
  5
DD1
330
A
100
AcDbEntity
  8
1
  6
Continuous
100
AcDbCircle
 10
628.6898313948579
 20
419.9838003926025
 30
0.0
 40
13.99999999999999
100
AcDbArc
 50
284.1001528452998
 51
285.3624850368
  0
LINE
  5
DD2
330
A
100
AcDbEntity
  8
1
  6
Continuous
100
AcDbLine
 10
622.4398313948579
 20
411.3838003926025
 30
0.0
 11
634.9398313948575
 21
411.3838003926025
 31
0.0
  0
LINE
  5
DD3
330
A
100
AcDbEntity
  8
1
  6
Continuous
100
AcDbLine
 10
622.5898313948579
 20
409.8838003926024
 30
0.0
 11
634.7898313948578
 21
409.8838003926024
 31
0.0
  0
LINE
  5
DD4
330
A
100
AcDbEntity
  8
1
  6
Continuous
100
AcDbLine
 10
633.7881915203574
 20
408.1505486981024
 30
0.0
 11
623.5914712688579
 21
408.1505486981024
 31
0.0
  0
LINE
  5
DD5
330
A
100
AcDbEntity
  8
1
  6
Continuous
100
AcDbLine
 10
624.9808840568578
 20
406.4840333706024
 30
0.0
 11
632.3987787328579
 21
406.4840333706024
 31
0.0
  0
ARC
  5
DD6
330
A
100
AcDbEntity
  8
1
  6
Continuous
100
AcDbCircle
 10
628.6898313948579
 20
420.5845605226025
 30
0.0
 40
14.17895969399999
100
AcDbArc
 50
266.9392587521
 51
273.0607412479
  0
LINE
  5
DD7
330
A
100
AcDbEntity
  8
1
  6
Continuous
100
AcDbLine
 10
627.8654104308574
 20
406.0439176786024
 30
0.0
 11
627.9327513923573
 21
406.4258272501025
 31
0.0
  0
SPLINE
  5
DD8
330
A
100
AcDbEntity
  8
1
  6
Continuous
100
AcDbSpline
210
0.0
220
0.0
230
1.0
 70
     8
 71
     3
 72
    10
 73
     6
 74
     0
 42
0.0000000001
 43
0.0000000001
 40
0.0
 40
0.0
 40
0.0
 40
0.0
 40
0.5
 40
0.5
 40
1.0
 40
1.0
 40
1.0
 40
1.0
 10
627.6898313946803
 20
406.0439176787951
 30
0.0
 10
627.7359656155558
 20
406.0406423219746
 30
0.0
 10
627.780965401369
 20
406.0387835985471
 30
0.0
 10
627.8456318936614
 20
406.038780233798
 30
0.0
 10
627.864832885709
 20
406.0406422572604
 30
0.0
 10
627.8654104308984
 20
406.0439176787951
 30
0.0
  0
LINE
  5
DD9
330
A
100
AcDbEntity
  8
1
  6
Continuous
100
AcDbLine
 10
632.0969113968573
 20
406.4258272501025
 30
0.0
 11
632.1004777818579
 21
406.4056012771024
 31
0.0
  0
LINE
  5
DDA
330
A
100
AcDbEntity
  8
1
  6
Continuous
100
AcDbLine
 10
625.2791850078574
 20
406.4056012771024
 30
0.0
 11
625.2827513923578
 21
406.4258272501025
 31
0.0
  0
ELLIPSE
  5
DDB
330
A
100
AcDbEntity
  8
1
  6
Continuous
100
AcDbEllipse
 10
628.6898313948579
 20
419.7044457841025
 30
0.0
 11
-13.90726280025446
 21
-0.000000000218839
 31
0.0
210
0.0
220
0.0
230
1.0
 40
0.9848077529999999
 41
1.32329142156523
 42
1.498829344921765
  0
ARC
  5
DDC
330
A
100
AcDbEntity
  8
1
  6
Continuous
100
AcDbCircle
 10
628.6898313948579
 20
419.9838003926025
 30
0.0
 40
13.64102268899999
100
AcDbArc
 50
266.7728773186
 51
273.2271226813999
  0
ELLIPSE
  5
DDD
330
A
100
AcDbEntity
  8
1
  6
Continuous
100
AcDbEllipse
 10
628.6898313948579
 20
419.7044457841025
 30
0.0
 11
13.90726280020597
 21
0.0000000003970435
 31
0.0
210
0.0
220
0.0
230
1.0
 40
0.9848077529999999
 41
4.784355962213266
 42
4.959893885570386
  0
LINE
  5
DDE
330
A
100
AcDbEntity
  8
1
  6
Continuous
100
AcDbLine
 10
629.4469113968574
 20
406.4258272501025
 30
0.0
 11
629.5142523583574
 21
406.0439176786024
 31
0.0
  0
ARC
  5
DDF
330
A
100
AcDbEntity
  8
1
  6
Continuous
100
AcDbCircle
 10
631.8954215938579
 20
408.3161446096025
 30
0.0
 40
1.9
100
AcDbArc
 50
285.3624850368
 51
355.0
  0
SPLINE
  5
DE0
330
A
100
AcDbEntity
  8
1
  6
Continuous
100
AcDbSpline
210
0.0
220
0.0
230
1.0
 70
     8
 71
     3
 72
    10
 73
     6
 74
     0
 42
0.0000000001
 43
0.0000000001
 40
0.0
 40
0.0
 40
0.0
 40
0.0
 40
0.5
 40
0.5
 40
1.0
 40
1.0
 40
1.0
 40
1.0
 10
629.5142523584623
 20
406.0439176787951
 30
0.0
 10
629.5148298922414
 20
406.0406423219746
 30
0.0
 10
629.5339632471402
 20
406.0387835985471
 30
0.0
 10
629.5985829215778
 20
406.038780233798
 30
0.0
 10
629.6436962622887
 20
406.0406422572604
 30
0.0
 10
629.6898313946804
 20
406.0439176787951
 30
0.0
  0
LINE
  5
DE1
330
A
100
AcDbEntity
  8
1
  6
Continuous
100
AcDbLine
 10
622.5898313948579
 20
411.3838003926025
 30
0.0
 11
622.5898313948579
 21
409.8838003926024
 31
0.0
  0
LINE
  5
DE2
330
A
100
AcDbEntity
  8
1
  6
Continuous
100
AcDbLine
 10
622.4398313948579
 20
412.1838003926026
 30
0.0
 11
622.4398313948579
 21
411.3838003926025
 31
0.0
  0
LINE
  5
DE3
330
A
100
AcDbEntity
  8
1
  6
Continuous
100
AcDbLine
 10
633.7881915203574
 20
408.1505486981024
 30
0.0
 11
633.9398313948579
 21
409.8838003926024
 31
0.0
  0
ARC
  5
DE4
330
A
100
AcDbEntity
  8
1
  6
Continuous
100
AcDbCircle
 10
628.6898313948579
 20
419.9838003926025
 30
0.0
 40
13.99999999999999
100
AcDbArc
 50
254.6375149632
 51
255.8998471547
  0
ARC
  5
DE5
330
A
100
AcDbEntity
  8
1
  6
Continuous
100
AcDbCircle
 10
625.4842411953575
 20
408.3161446096025
 30
0.0
 40
1.9
100
AcDbArc
 50
184.9999999999999
 51
254.6375149632
  0
LINE
  5
DE6
330
A
100
AcDbEntity
  8
1
  6
Continuous
100
AcDbLine
 10
634.7898313948578
 20
409.8838003926024
 30
0.0
 11
634.7898313948578
 21
411.3838003926025
 31
0.0
  0
LINE
  5
DE7
330
A
100
AcDbEntity
  8
1
  6
Continuous
100
AcDbLine
 10
634.9398313948575
 20
411.3838003926025
 30
0.0
 11
634.9398313948575
 21
412.1838003926026
 31
0.0
  0
LINE
  5
DE8
330
A
100
AcDbEntity
  8
1
  6
Continuous
100
AcDbLine
 10
623.4398313948579
 20
409.8838003926024
 30
0.0
 11
623.5914712688579
 21
408.1505486981024
 31
0.0
  0
ARC
  5
DE9
330
A
100
AcDbEntity
  8
1
  6
Continuous
100
AcDbCircle
 10
648.6898313948579
 20
419.9838003926025
 30
0.0
 40
13.99999999999999
100
AcDbArc
 50
284.1001528452998
 51
285.3624850368
  0
LINE
  5
DEA
330
A
100
AcDbEntity
  8
1
  6
Continuous
100
AcDbLine
 10
642.4398313948579
 20
411.3838003926025
 30
0.0
 11
654.9398313948579
 21
411.3838003926025
 31
0.0
  0
LINE
  5
DEB
330
A
100
AcDbEntity
  8
1
  6
Continuous
100
AcDbLine
 10
642.5898313948579
 20
409.8838003926024
 30
0.0
 11
654.7898313948579
 21
409.8838003926024
 31
0.0
  0
LINE
  5
DEC
330
A
100
AcDbEntity
  8
1
  6
Continuous
100
AcDbLine
 10
653.7881915203574
 20
408.1505486981024
 30
0.0
 11
643.5914712688574
 21
408.1505486981024
 31
0.0
  0
LINE
  5
DED
330
A
100
AcDbEntity
  8
1
  6
Continuous
100
AcDbLine
 10
644.9808840568579
 20
406.4840333706024
 30
0.0
 11
652.3987787328579
 21
406.4840333706024
 31
0.0
  0
ARC
  5
DEE
330
A
100
AcDbEntity
  8
1
  6
Continuous
100
AcDbCircle
 10
648.6898313948579
 20
420.5845605226025
 30
0.0
 40
14.17895969399999
100
AcDbArc
 50
266.9392587521
 51
273.0607412479
  0
LINE
  5
DEF
330
A
100
AcDbEntity
  8
1
  6
Continuous
100
AcDbLine
 10
647.8654104308574
 20
406.0439176786024
 30
0.0
 11
647.9327513923574
 21
406.4258272501025
 31
0.0
  0
SPLINE
  5
DF0
330
A
100
AcDbEntity
  8
1
  6
Continuous
100
AcDbSpline
210
0.0
220
0.0
230
1.0
 70
     8
 71
     3
 72
    10
 73
     6
 74
     0
 42
0.0000000001
 43
0.0000000001
 40
0.0
 40
0.0
 40
0.0
 40
0.0
 40
0.5
 40
0.5
 40
1.0
 40
1.0
 40
1.0
 40
1.0
 10
647.6898313946803
 20
406.0439176787946
 30
0.0
 10
647.7359656155559
 20
406.0406423219744
 30
0.0
 10
647.780965401369
 20
406.0387835985467
 30
0.0
 10
647.8456318936614
 20
406.0387802337976
 30
0.0
 10
647.8648328857088
 20
406.0406422572603
 30
0.0
 10
647.8654104308983
 20
406.0439176787946
 30
0.0
  0
LINE
  5
DF1
330
A
100
AcDbEntity
  8
1
  6
Continuous
100
AcDbLine
 10
652.0969113968578
 20
406.4258272501025
 30
0.0
 11
652.1004777818579
 21
406.4056012771024
 31
0.0
  0
LINE
  5
DF2
330
A
100
AcDbEntity
  8
1
  6
Continuous
100
AcDbLine
 10
645.2827513923574
 20
406.4258272501025
 30
0.0
 11
645.2791850078575
 21
406.4056012771024
 31
0.0
  0
ELLIPSE
  5
DF3
330
A
100
AcDbEntity
  8
1
  6
Continuous
100
AcDbEllipse
 10
648.6898313948579
 20
419.7044457841025
 30
0.0
 11
-13.90726280019134
 21
-0.0000000005677055
 31
0.0
210
0.0
220
0.0
230
1.0
 40
0.9848077529999999
 41
1.323291421540913
 42
1.498829344898305
  0
ARC
  5
DF4
330
A
100
AcDbEntity
  8
1
  6
Continuous
100
AcDbCircle
 10
648.6898313948579
 20
419.9838003926025
 30
0.0
 40
13.64102268899999
100
AcDbArc
 50
266.7728773186
 51
273.2271226813999
  0
ELLIPSE
  5
DF5
330
A
100
AcDbEntity
  8
1
  6
Continuous
100
AcDbEllipse
 10
648.6898313948579
 20
419.7044457841025
 30
0.0
 11
13.90726280021201
 21
0.0000000008518325
 31
0.0
210
0.0
220
0.0
230
1.0
 40
0.9848077530000001
 41
4.784355962181183
 42
4.959893885538198
  0
LINE
  5
DF6
330
A
100
AcDbEntity
  8
1
  6
Continuous
100
AcDbLine
 10
649.4469113968574
 20
406.4258272501025
 30
0.0
 11
649.5142523583574
 21
406.0439176786024
 31
0.0
  0
ARC
  5
DF7
330
A
100
AcDbEntity
  8
1
  6
Continuous
100
AcDbCircle
 10
651.8954215938578
 20
408.3161446096025
 30
0.0
 40
1.9
100
AcDbArc
 50
285.3624850368
 51
355.0
  0
SPLINE
  5
DF8
330
A
100
AcDbEntity
  8
1
  6
Continuous
100
AcDbSpline
210
0.0
220
0.0
230
1.0
 70
     8
 71
     3
 72
    10
 73
     6
 74
     0
 42
0.0000000001
 43
0.0000000001
 40
0.0
 40
0.0
 40
0.0
 40
0.0
 40
0.5
 40
0.5
 40
1.0
 40
1.0
 40
1.0
 40
1.0
 10
649.5142523584624
 20
406.0439176787946
 30
0.0
 10
649.5148298922414
 20
406.0406423219744
 30
0.0
 10
649.5339632471402
 20
406.0387835985467
 30
0.0
 10
649.5985829215774
 20
406.0387802337976
 30
0.0
 10
649.6436962622888
 20
406.0406422572603
 30
0.0
 10
649.6898313946803
 20
406.0439176787946
 30
0.0
  0
LINE
  5
DF9
330
A
100
AcDbEntity
  8
1
  6
Continuous
100
AcDbLine
 10
642.5898313948579
 20
411.3838003926025
 30
0.0
 11
642.5898313948579
 21
409.8838003926024
 31
0.0
  0
LINE
  5
DFA
330
A
100
AcDbEntity
  8
1
  6
Continuous
100
AcDbLine
 10
642.4398313948579
 20
412.1838003926026
 30
0.0
 11
642.4398313948579
 21
411.3838003926025
 31
0.0
  0
LINE
  5
DFB
330
A
100
AcDbEntity
  8
1
  6
Continuous
100
AcDbLine
 10
653.7881915203574
 20
408.1505486981024
 30
0.0
 11
653.9398313948579
 21
409.8838003926024
 31
0.0
  0
ARC
  5
DFC
330
A
100
AcDbEntity
  8
1
  6
Continuous
100
AcDbCircle
 10
648.6898313948579
 20
419.9838003926025
 30
0.0
 40
13.99999999999999
100
AcDbArc
 50
254.6375149632
 51
255.8998471547
  0
ARC
  5
DFD
330
A
100
AcDbEntity
  8
1
  6
Continuous
100
AcDbCircle
 10
645.4842411953575
 20
408.3161446096025
 30
0.0
 40
1.9
100
AcDbArc
 50
184.9999999999999
 51
254.6375149632
  0
LINE
  5
DFE
330
A
100
AcDbEntity
  8
1
  6
Continuous
100
AcDbLine
 10
654.7898313948579
 20
409.8838003926024
 30
0.0
 11
654.7898313948579
 21
411.3838003926025
 31
0.0
  0
LINE
  5
DFF
330
A
100
AcDbEntity
  8
1
  6
Continuous
100
AcDbLine
 10
654.9398313948579
 20
411.3838003926025
 30
0.0
 11
654.9398313948579
 21
412.1838003926026
 31
0.0
  0
LINE
  5
E00
330
A
100
AcDbEntity
  8
1
  6
Continuous
100
AcDbLine
 10
643.4398313948579
 20
409.8838003926024
 30
0.0
 11
643.5914712688574
 21
408.1505486981024
 31
0.0
  0
ELLIPSE
  5
E01
330
A
100
AcDbEntity
  8
1
  6
Continuous
100
AcDbEllipse
 10
628.6898313943579
 20
617.7999069666021
 30
0.0
 11
1487.000000009594
 21
-0.000000000022121
 31
0.0
210
0.0
220
0.0
230
1.0
 40
0.0871557427
 41
4.643508615170794
 42
4.781269345598753
  0
ELLIPSE
  5
E02
330
A
100
AcDbEntity
  8
1
  6
Continuous
100
AcDbEllipse
 10
730.6898313948579
 20
488.941386611102
 30
0.0
 11
4.999999999999796
 21
-0.0000000000000555
 31
0.0
210
0.0
220
0.0
230
1.0
 40
0.0871557427
 41
4.781269345598699
 42
6.28318530717955
  0
ELLIPSE
  5
E03
330
A
100
AcDbEntity
  8
1
  6
Continuous
100
AcDbEllipse
 10
526.6898313948579
 20
488.941386611102
 30
0.0
 11
5.000000000000499
 21
-0.0000000000000625
 31
0.0
210
0.0
220
0.0
230
1.0
 40
0.0871557427
 41
3.141592653589792
 42
4.643508615170135
  0
LINE
  5
E04
330
A
100
AcDbEntity
  8
1
  6
Continuous
100
AcDbLine
 10
735.6898313948579
 20
498.1350721726021
 30
0.0
 11
735.6898313948579
 21
488.941386611102
 31
0.0
  0
ELLIPSE
  5
E07
330
A
100
AcDbEntity
  8
1
  6
Continuous
100
AcDbEllipse
 10
730.6898313948579
 20
498.6331695216025
 30
0.0
 11
4.499999999998921
 21
-0.0000000000000625
 31
0.0
210
0.0
220
0.0
230
1.0
 40
0.0871557427
 41
0.5485026072079795
 42
1.570796326794897
  0
ELLIPSE
  5
E0D
330
A
100
AcDbEntity
  8
1
  6
Continuous
100
AcDbEllipse
 10
526.6898313948579
 20
498.6331695216025
 30
0.0
 11
4.499999999999989
 21
-0.0000000000000625
 31
0.0
210
0.0
220
0.0
230
1.0
 40
0.0871557427
 41
1.570796326794897
 42
2.728044268099824
  0
ELLIPSE
  5
E0E
330
A
100
AcDbEntity
  8
1
  6
Continuous
100
AcDbEllipse
 10
526.6898313948579
 20
498.6331695216025
 30
0.0
 11
4.499999999999989
 21
-0.0000000000000625
 31
0.0
210
0.0
220
0.0
230
1.0
 40
0.0871557427
 41
2.728044268099824
 42
3.141592653589771
  0
LINE
  5
E0F
330
A
100
AcDbEntity
  8
1
  6
Continuous
100
AcDbLine
 10
730.6898313948579
 20
499.0253703641021
 30
0.0
 11
526.6898313948579
 21
499.0253703641021
 31
0.0
  0
LINE
  5
E10
330
A
100
AcDbEntity
  8
1
  6
Continuous
100
AcDbLine
 10
521.6898313948579
 20
488.941386611102
 30
0.0
 11
521.6898313948579
 21
498.1350721726021
 31
0.0
  0
LINE
  5
E12
330
A
100
AcDbEntity
  8
1
  6
Continuous
100
AcDbLine
 10
514.4872787353579
 20
494.6469271536026
 30
0.0
 11
514.4842385453574
 21
494.7539765436025
 31
0.0
  0
ELLIPSE
  5
E15
330
A
100
AcDbEntity
  8
1
  6
Continuous
100
AcDbEllipse
 10
517.9238334163573
 20
494.1089936556025
 30
0.0
 11
-3.493588586390885
 21
-0.211751715552655
 31
0.0
210
0.0
220
0.0
230
0.9999999999999998
 40
0.9978134070999999
 41
5.365989850046492
 42
6.03676603238637
  0
ELLIPSE
  5
E19
330
A
100
AcDbEntity
  8
1
  6
Continuous
100
AcDbEllipse
 10
739.4558293728579
 20
494.1089936556025
 30
0.0
 11
3.4935885863909
 21
-0.2117517155525995
 31
0.0
210
0.0
220
0.0
230
1.0
 40
0.9978134070999999
 41
0.2464192747933201
 42
0.999044432068103
  0
LINE
  5
E1F
330
A
100
AcDbEntity
  8
1
  6
Continuous
100
AcDbLine
 10
743.6875436713578
 20
488.2041099431025
 30
0.0
 11
743.6681295623572
 21
488.5403168261021
 31
0.0
  0
SPLINE
  5
E20
330
A
100
AcDbEntity
  8
1
  6
Continuous
100
AcDbSpline
210
0.0
220
0.0
230
1.0
 70
     8
 71
     3
 72
    15
 73
    11
 74
     0
 42
0.0000000001
 43
0.0000000001
 40
0.0
 40
0.0
 40
0.0
 40
0.0
 40
0.1001003323263662
 40
0.1839702316436268
 40
0.2691746133959496
 40
0.3677350997501397
 40
0.5004996580146007
 40
0.7182396934828645
 40
0.9505169334688726
 40
1.0
 40
1.0
 40
1.0
 40
1.0
 10
735.6898313946819
 20
498.135072172541
 30
0.0
 10
735.6797768291833
 20
498.2171319511565
 30
0.0
 10
735.6631116650719
 20
498.344105627011
 30
0.0
 10
735.5578019055213
 20
498.498679262018
 30
0.0
 10
735.449987698875
 20
498.5927795453315
 30
0.0
 10
735.3349175975114
 20
498.658975495151
 30
0.0
 10
735.1881072650628
 20
498.7171741875955
 30
0.0
 10
734.9831218635088
 20
498.7700450179669
 30
0.0
 10
734.7718195945413
 20
498.8113970756194
 30
0.0
 10
734.6285571377162
 20
498.8296052409235
 30
0.0
 10
734.5991493497904
 20
498.8333193032229
 30
0.0
  0
SPLINE
  5
E21
330
A
100
AcDbEntity
  8
1
  6
Continuous
100
AcDbSpline
210
0.0
220
0.0
230
1.0
 70
     8
 71
     3
 72
    14
 73
    10
 74
     0
 42
0.0000000001
 43
0.0000000001
 40
0.0
 40
0.0
 40
0.0
 40
0.0
 40
0.0605583410871354
 40
0.3751006523911871
 40
0.5628006020249729
 40
0.7011538057495881
 40
0.8157232477753055
 40
0.9293193267451119
 40
1.0
 40
1.0
 40
1.0
 40
1.0
 10
522.4910141342498
 20
498.7851650590615
 30
0.0
 10
522.4672810559633
 20
498.7811477581045
 30
0.0
 10
522.3411571593889
 20
498.7595056198655
 30
0.0
 10
522.1904451039308
 20
498.7169400171664
 30
0.0
 10
522.0242079253499
 20
498.650479442442
 30
0.0
 10
521.8927064131239
 20
498.5671374943335
 30
0.0
 10
521.7741140776358
 20
498.4418358943734
 30
0.0
 10
521.7003023834828
 20
498.2817340244375
 30
0.0
 10
521.6927952534093
 20
498.180948387114
 30
0.0
 10
521.6898313946818
 20
498.1350721725434
 30
0.0
  0
SPLINE
  5
E22
330
A
100
AcDbEntity
  8
1
  6
Continuous
100
AcDbSpline
210
0.0
220
0.0
230
1.0
 70
     8
 71
     3
 72
    16
 73
    12
 74
     0
 42
0.0000000001
 43
0.0000000001
 40
0.2411880367778684
 40
0.2411880367778684
 40
0.2411880367778684
 40
0.2411880367778684
 40
0.2828668722455905
 40
0.371764630374386
 40
0.4290308048131397
 40
0.4827481442706148
 40
0.5351396787182911
 40
0.5880677987134268
 40
0.6439656998866968
 40
0.7028495426123454
 40
0.7155338563568793
 40
0.7155338563568793
 40
0.7155338563568793
 40
0.7155338563568793
 10
518.2309909513833
 20
497.7199283807304
 30
0.0
 10
518.1745250374524
 20
497.7162120787769
 30
0.0
 10
517.9973742170979
 20
497.702934576025
 30
0.0
 10
517.7348550143348
 20
497.6747335755685
 30
0.0
 10
517.4149286220037
 20
497.6206666640946
 30
0.0
 10
517.1150090397003
 20
497.5503515276489
 30
0.0
 10
516.7864510956583
 20
497.4455585798724
 30
0.0
 10
516.4310102820989
 20
497.293907581369
 30
0.0
 10
516.0589815190063
 20
497.0844129590714
 30
0.0
 10
515.7891310858408
 20
496.885082382657
 30
0.0
 10
515.6459089607258
 20
496.7603949434499
 30
0.0
 10
515.6208014592323
 20
496.7379038883454
 30
0.0
  0
ARC
  5
E23
330
A
100
AcDbEntity
  8
1
  6
Continuous
100
AcDbCircle
 10
562.0767443103578
 20
485.6770403121025
 30
0.0
 40
48.4519851605
100
AcDbArc
 50
169.0902904427
 51
177.0100164133
  0
SPLINE
  5
E25
330
A
100
AcDbEntity
  8
1
  6
Continuous
100
AcDbSpline
210
0.0
220
0.0
230
1.0
 70
     8
 71
     3
 72
    17
 73
    13
 74
     0
 42
0.0000000001
 43
0.0000000001
 40
0.2786665896737687
 40
0.2786665896737687
 40
0.2786665896737687
 40
0.2786665896737687
 40
0.2794410414154414
 40
0.3330824429833862
 40
0.3843933987608018
 40
0.4333151443446118
 40
0.4805338135190697
 40
0.5281328919417482
 40
0.5786794505918526
 40
0.6365789253299643
 40
0.7093695819439048
 40
0.7644123387298844
 40
0.7644123387298844
 40
0.7644123387298844
 40
0.7644123387298844
 10
741.7598949082687
 20
496.731217210921
 30
0.0
 10
741.7583393220894
 20
496.7326164896146
 30
0.0
 10
741.6489623492978
 20
496.8308290726845
 30
0.0
 10
741.4261463931279
 20
497.0071681482219
 30
0.0
 10
741.0834802583198
 20
497.2189956143204
 30
0.0
 10
740.7510667649825
 20
497.3789293899825
 30
0.0
 10
740.4383343194499
 20
497.4951494965185
 30
0.0
 10
740.1474618686763
 20
497.57764663887
 30
0.0
 10
739.8702057846169
 20
497.6365603014561
 30
0.0
 10
739.5864385823183
 20
497.6802276102425
 30
0.0
 10
739.3231023166089
 20
497.7075436394128
 30
0.0
 10
739.1468430770398
 20
497.7200588770125
 30
0.0
 10
739.0705504688148
 20
497.7245977520905
 30
0.0
  0
ARC
  5
E26
330
A
100
AcDbEntity
  8
1
  6
Continuous
100
AcDbCircle
 10
695.7584655358574
 20
485.7501075936025
 30
0.0
 40
47.99084469649999
100
AcDbArc
 50
3.333081926099931
 51
10.92698629619998
  0
LINE
  5
E27
330
A
100
AcDbEntity
  8
1
  6
Continuous
100
AcDbLine
 10
730.6898313948579
 20
499.027273015102
 30
0.0
 11
526.6898313948579
 21
499.027273015102
 31
0.0
  0
LINE
  5
E28
330
A
100
AcDbEntity
  8
1
  6
Continuous
100
AcDbLine
 10
738.292345987358
 20
497.753871579102
 30
0.0
 11
735.6898313948579
 21
497.753871579102
 31
0.0
  0
LINE
  5
E29
330
A
100
AcDbEntity
  8
1
  6
Continuous
100
AcDbLine
 10
521.6898313948579
 20
497.753871579102
 30
0.0
 11
519.1132352483578
 21
497.753871579102
 31
0.0
  0
SPLINE
  5
E2B
330
A
100
AcDbEntity
  8
1
  6
Continuous
100
AcDbSpline
210
0.0
220
0.0
230
1.0
 70
     8
 71
     3
 72
    12
 73
     8
 74
     0
 42
0.0000000001
 43
0.0000000001
 40
0.0
 40
0.0
 40
0.0
 40
0.0
 40
0.25
 40
0.25
 40
0.5
 40
0.5
 40
1.0
 40
1.0
 40
1.0
 40
1.0
 10
743.6898313946819
 20
477.9618505196739
 30
0.0
 10
743.6898313946819
 20
477.8300054782398
 30
0.0
 10
743.407389582848
 20
477.7009140379645
 30
0.0
 10
742.3052696639988
 20
477.4569521172288
 30
0.0
 10
741.4932004897102
 20
477.3449366733125
 30
0.0
 10
738.4287401945957
 20
477.058516464347
 30
0.0
 10
735.5541744840013
 20
476.93817646143
 30
0.0
 10
732.5359070433157
 20
476.9199208735614
 30
0.0
  0
ELLIPSE
  5
E2D
330
A
100
AcDbEntity
  8
1
  6
Continuous
100
AcDbEllipse
 10
693.7583546563574
 20
482.2851761641025
 30
0.0
 11
36.91937103877944
 21
36.03600648664627
 31
0.0
210
0.0
220
0.0
230
1.0
 40
0.9356985243
 41
5.595424861336875
 42
5.729121326133317
  0
ELLIPSE
  5
E2E
330
A
100
AcDbEntity
  8
1
  6
Continuous
100
AcDbEllipse
 10
628.6898313948579
 20
607.3398626376024
 30
0.0
 11
-1500.000000013553
 21
0.000000000021233
 31
0.0
210
0.0
220
0.0
230
1.0
 40
0.0871557427
 41
1.501510187517966
 42
1.640082466071868
  0
SPLINE
  5
E30
330
A
100
AcDbEntity
  8
1
  6
Continuous
100
AcDbSpline
210
0.0
220
0.0
230
1.0
 70
     8
 71
     3
 72
    12
 73
     8
 74
     0
 42
0.0000000001
 43
0.0000000001
 40
0.0
 40
0.0
 40
0.0
 40
0.0
 40
0.25
 40
0.25
 40
0.5
 40
0.5
 40
1.0
 40
1.0
 40
1.0
 40
1.0
 10
524.8437557460479
 20
476.9199208735645
 30
0.0
 10
523.3346331307094
 20
476.9290486003314
 30
0.0
 10
521.8765823925414
 20
476.9625430568596
 30
0.0
 10
519.1604498907313
 20
477.0752583261335
 30
0.0
 10
517.9345206290503
 20
477.1536199117245
 30
0.0
 10
514.8682569686343
 20
477.4398934764395
 30
0.0
 10
513.6898313946818
 20
477.6981584963479
 30
0.0
 10
513.6898313946818
 20
477.9618505196764
 30
0.0
  0
ELLIPSE
  5
E31
330
A
100
AcDbEntity
  8
1
  6
Continuous
100
AcDbEllipse
 10
563.6213081313578
 20
482.2851761641025
 30
0.0
 11
-36.91937103445317
 21
36.03600648939407
 31
0.0
210
0.0
220
0.0
230
1.0
 40
0.9356985243
 41
0.5540639811423187
 42
0.6877604459405891
  0
LINE
  5
E33
330
A
100
AcDbEntity
  8
1
  6
Continuous
100
AcDbLine
 10
513.6898313948579
 20
488.1993956261025
 30
0.0
 11
513.6898313948579
 21
477.961850519602
 31
0.0
  0
LINE
  5
E34
330
A
100
AcDbEntity
  8
1
  6
Continuous
100
AcDbLine
 10
743.6898313948579
 20
477.961850519602
 30
0.0
 11
743.6898313948579
 21
488.1993956261025
 31
0.0
  0
SPLINE
  5
E35
330
A
100
AcDbEntity
  8
1
  6
Continuous
100
AcDbSpline
210
0.0
220
0.0
230
1.0
 70
     8
 71
     3
 72
    10
 73
     6
 74
     0
 42
0.0000000001
 43
0.0000000001
 40
0.0
 40
0.0
 40
0.0
 40
0.0
 40
0.25
 40
0.25
 40
0.3556714806060918
 40
0.3556714806060918
 40
0.3556714806060918
 40
0.3556714806060918
 10
739.4558293729764
 20
497.6013685019305
 30
0.0
 10
739.4601539414554
 20
497.6764726623878
 30
0.0
 10
739.2708234077434
 20
497.7219206887885
 30
0.0
 10
738.7219064286532
 20
497.7501560308359
 30
0.0
 10
738.525669378427
 20
497.7538216083369
 30
0.0
 10
738.2969637172983
 20
497.7537946459224
 30
0.0
  0
SPLINE
  5
E36
330
A
100
AcDbEntity
  8
1
  6
Continuous
100
AcDbSpline
210
0.0
220
0.0
230
1.0
 70
     8
 71
     3
 72
    10
 73
     6
 74
     0
 42
0.0000000001
 43
0.0000000001
 40
0.6437476304730816
 40
0.6437476304730816
 40
0.6437476304730816
 40
0.6437476304730816
 40
0.75
 40
0.75
 40
0.8200260990155186
 40
0.8200260990155186
 40
0.8200260990155186
 40
0.8200260990155186
 10
519.0895907958629
 20
497.7536982746835
 30
0.0
 10
518.8581237115234
 20
497.753803099069
 30
0.0
 10
518.6595874834623
 20
497.7502052028565
 30
0.0
 10
518.3888414231335
 20
497.7363527870611
 30
0.0
 10
518.2962793064098
 20
497.7287968627822
 30
0.0
 10
518.2188434713203
 20
497.7191208937965
 30
0.0
  0
SPLINE
  5
E38
330
A
100
AcDbEntity
  8
1
  6
Continuous
100
AcDbSpline
210
0.0
220
0.0
230
1.0
 70
     8
 71
     3
 72
     8
 73
     4
 74
     0
 42
0.0000000001
 43
0.0000000001
 40
0.0
 40
0.0
 40
0.0
 40
0.0
 40
1.0
 40
1.0
 40
1.0
 40
1.0
 10
514.8847468781583
 20
484.4737026111675
 30
0.0
 10
514.6268161394639
 20
484.5325660186035
 30
0.0
 10
514.4948487853579
 20
484.5865491393159
 30
0.0
 10
514.4872787352954
 20
484.6344192252179
 30
0.0
  0
ARC
  5
E39
330
A
100
AcDbEntity
  8
1
  6
Continuous
100
AcDbCircle
 10
528.5939754713579
 20
558.8503245571025
 30
0.0
 40
75.629523605
100
AcDbArc
 50
259.5563616621999
 51
267.5958432920999
  0
ARC
  5
E3B
330
A
100
AcDbEntity
  8
1
  6
Continuous
100
AcDbCircle
 10
628.6898313948579
 20
7197.658439650102
 30
0.0
 40
6715.165165984995
100
AcDbArc
 50
269.1188488947
 51
270.8811511052999
  0
SPLINE
  5
E3F
330
A
100
AcDbEntity
  8
1
  6
Continuous
100
AcDbSpline
210
0.0
220
0.0
230
1.0
 70
     8
 71
     3
 72
     8
 73
     4
 74
     0
 42
0.0000000001
 43
0.0000000001
 40
0.0
 40
0.0
 40
0.0
 40
0.0
 40
1.0
 40
1.0
 40
1.0
 40
1.0
 10
742.8923840540683
 20
484.634419225215
 30
0.0
 10
742.8848140040054
 20
484.5865491393145
 30
0.0
 10
742.7528466499
 20
484.5325660186004
 30
0.0
 10
742.4949159112054
 20
484.4737026111645
 30
0.0
  0
ARC
  5
E45
330
A
100
AcDbEntity
  8
1
  6
Continuous
100
AcDbCircle
 10
729.015290393358
 20
556.8110457376026
 30
0.0
 40
73.58254898200001
100
AcDbArc
 50
272.2921409402
 51
280.5556541056
  0
LINE
  5
E4B
330
A
100
AcDbEntity
  8
1
  6
Continuous
100
AcDbLine
 10
521.6898313948579
 20
488.941386611102
 30
0.0
 11
521.6898313948579
 21
487.9451919131025
 31
0.0
  0
LINE
  5
E4E
330
A
100
AcDbEntity
  8
1
  6
Continuous
100
AcDbLine
 10
735.6898313948579
 20
488.941386611102
 30
0.0
 11
735.6898313948579
 21
487.9451919131025
 31
0.0
  0
ELLIPSE
  5
E4F
330
A
100
AcDbEntity
  8
1
  6
Continuous
100
AcDbEllipse
 10
628.6898314813579
 20
616.8037121521024
 30
0.0
 11
1486.999999337954
 21
0.000000008199441
 31
0.0
210
0.0
220
0.0
230
1.0
 40
0.0871557427
 41
4.749065140029541
 42
4.781269345570324
  0
ELLIPSE
  5
E50
330
A
100
AcDbEntity
  8
1
  6
Continuous
100
AcDbEllipse
 10
628.6898313938579
 20
616.8037122841024
 30
0.0
 11
-1487.000000098671
 21
-0.0000000001970925
 31
0.0
210
0.0
220
0.0
230
1.0
 40
0.0871557428
 41
1.534120167109979
 42
1.607472486480685
  0
ELLIPSE
  5
E51
330
A
100
AcDbEntity
  8
1
  6
Continuous
100
AcDbEllipse
 10
628.6898311963574
 20
616.8037119286021
 30
0.0
 11
-1486.999998051607
 21
0.0000000173925875
 31
0.0
210
0.0
220
0.0
230
1.0
 40
0.0871557426
 41
1.5019159616239
 42
1.534120167193145
  0
ELLIPSE
  5
E52
330
A
100
AcDbEntity
  8
1
  6
Continuous
100
AcDbEllipse
 10
526.6898313948579
 20
487.9451919131025
 30
0.0
 11
-5.000000000000545
 21
0.0000000000000695
 31
0.0
210
0.0
220
0.0
230
1.0
 40
0.0871557427
 41
0.0
 42
1.501915961580326
  0
ELLIPSE
  5
E53
330
A
100
AcDbEntity
  8
1
  6
Continuous
100
AcDbEllipse
 10
730.6898313948579
 20
487.9451919131025
 30
0.0
 11
-4.999999999999809
 21
0.0000000000000625
 31
0.0
210
0.0
220
0.0
230
1.0
 40
0.0871557427
 41
1.639676692008906
 42
3.141592653589773
  0
LINE
  5
E56
330
A
100
AcDbEntity
  8
1
  6
Continuous
100
AcDbLine
 10
734.1898313948575
 20
490.0047513301024
 30
0.0
 11
734.1898313948575
 21
489.4394842966025
 31
0.0
  0
ELLIPSE
  5
E57
330
A
100
AcDbEntity
  8
1
  6
Continuous
100
AcDbEllipse
 10
732.6898313948579
 20
490.0047513301024
 30
0.0
 11
-1.500000000000014
 21
0.000000000000021
 31
0.0
210
0.0
220
0.0
230
1.0
 40
0.0871557427
 41
3.141592653589792
 42
4.71238898038469
  0
LINE
  5
E58
330
A
100
AcDbEntity
  8
1
  6
Continuous
100
AcDbLine
 10
524.6898313948579
 20
490.1354849446025
 30
0.0
 11
732.6898313948579
 21
490.1354849446025
 31
0.0
  0
ELLIPSE
  5
E59
330
A
100
AcDbEntity
  8
1
  6
Continuous
100
AcDbEllipse
 10
524.6898313948579
 20
490.0047513301024
 30
0.0
 11
-1.500000000000014
 21
0.000000000000014
 31
0.0
210
0.0
220
0.0
230
1.0
 40
0.0871557427
 41
4.71238898038469
 42
6.283185307179584
  0
LINE
  5
E5A
330
A
100
AcDbEntity
  8
1
  6
Continuous
100
AcDbLine
 10
523.1898313948579
 20
489.4394843011026
 30
0.0
 11
523.1898313948579
 21
490.0047513301024
 31
0.0
  0
ELLIPSE
  5
E5B
330
A
100
AcDbEntity
  8
1
  6
Continuous
100
AcDbEllipse
 10
526.6898313948579
 20
489.4394843011026
 30
0.0
 11
3.500000000001794
 21
-0.0000000000000485
 31
0.0
210
0.0
220
0.0
230
1.0
 40
0.0871557427
 41
3.141592653589792
 42
4.643508615170001
  0
ELLIPSE
  5
E5C
330
A
100
AcDbEntity
  8
1
  6
Continuous
100
AcDbEllipse
 10
628.6898313928574
 20
618.298004656602
 30
0.0
 11
1485.500000010768
 21
-0.0000000000850155
 31
0.0
210
0.0
220
0.0
230
1.0
 40
0.0871557427
 41
4.643508615171949
 42
4.781268941111402
  0
ELLIPSE
  5
E5D
330
A
100
AcDbEntity
  8
1
  6
Continuous
100
AcDbEllipse
 10
730.6898313948579
 20
489.4394842966025
 30
0.0
 11
3.500000000003556
 21
-0.0000000000000485
 31
0.0
210
0.0
220
0.0
230
1.0
 40
0.0871557427
 41
4.781097670067667
 42
6.283185307179584
  0
LINE
  5
E60
330
A
100
AcDbEntity
  8
1
  6
Continuous
100
AcDbLine
 10
732.6898313948579
 20
490.309796430102
 30
0.0
 11
524.6898313948579
 21
490.309796430102
 31
0.0
  0
ELLIPSE
  5
E61
330
A
100
AcDbEntity
  8
1
  6
Continuous
100
AcDbEllipse
 10
526.6898313948579
 20
497.8362141041025
 30
0.0
 11
-3.500000000000018
 21
0.0000000000000415
 31
0.0
210
0.0
220
0.0
230
1.0
 40
0.0871557427
 41
5.943492731013307
 42
6.283185307179584
  0
ELLIPSE
  5
E63
330
A
100
AcDbEntity
  8
1
  6
Continuous
100
AcDbEllipse
 10
732.6898313948579
 20
490.440530044102
 30
0.0
 11
1.500000000000001
 21
-0.000000000000021
 31
0.0
210
0.0
220
0.0
230
1.0
 40
0.0871557427
 41
4.71238898038469
 42
6.283185307179584
  0
LINE
  5
E64
330
A
100
AcDbEntity
  8
1
  6
Continuous
100
AcDbLine
 10
734.1898313948575
 20
498.6331698621025
 30
0.0
 11
734.1898313948575
 21
490.440530044102
 31
0.0
  0
ELLIPSE
  5
E65
330
A
100
AcDbEntity
  8
1
  6
Continuous
100
AcDbEllipse
 10
730.6898313948579
 20
498.6331698621025
 30
0.0
 11
-3.500000000000003
 21
0.0000000000000485
 31
0.0
210
0.0
220
0.0
230
1.0
 40
0.0871557427
 41
3.141592653589718
 42
4.71238898038469
  0
LINE
  5
E66
330
A
100
AcDbEntity
  8
1
  6
Continuous
100
AcDbLine
 10
526.6898313948579
 20
498.938214962102
 30
0.0
 11
730.6898313948579
 21
498.938214962102
 31
0.0
  0
ELLIPSE
  5
E67
330
A
100
AcDbEntity
  8
1
  6
Continuous
100
AcDbEllipse
 10
526.6898313948579
 20
498.6331698621025
 30
0.0
 11
-3.500000000000031
 21
0.0000000000000415
 31
0.0
210
0.0
220
0.0
230
1.0
 40
0.0871557427
 41
4.71238898038469
 42
6.283185307179584
  0
LINE
  5
E69
330
A
100
AcDbEntity
  8
1
  6
Continuous
100
AcDbLine
 10
523.1898313948579
 20
490.440530044102
 30
0.0
 11
523.1898313948579
 21
498.6331698621025
 31
0.0
  0
ELLIPSE
  5
E6A
330
A
100
AcDbEntity
  8
1
  6
Continuous
100
AcDbEllipse
 10
524.6898313948579
 20
490.440530044102
 30
0.0
 11
1.499999999999959
 21
-0.000000000000021
 31
0.0
210
0.0
220
0.0
230
1.0
 40
0.0871557427
 41
3.141592653589951
 42
4.712388980384643
  0
LINE
  5
E6D
330
A
100
AcDbEntity
  8
1
  6
Continuous
100
AcDbLine
 10
730.6898313948579
 20
499.027273015102
 30
0.0
 11
730.6898313948579
 21
499.0253703641021
 31
0.0
  0
ELLIPSE
  5
E70
330
A
100
AcDbEntity
  8
1
  6
Continuous
100
AcDbEllipse
 10
522.1898313948575
 20
498.1350721726021
 30
0.0
 11
0.5000000000000144
 21
0.000000000000021
 31
0.0
210
0.0
220
0.0
230
1.0
 40
0.9961946981000002
 41
1.570796326794854
 42
3.141592653589792
  0
LINE
  5
E71
330
A
100
AcDbEntity
  8
1
  6
Continuous
100
AcDbLine
 10
526.6898313948579
 20
499.027273015102
 30
0.0
 11
526.6898313948579
 21
499.0253703641021
 31
0.0
  0
LINE
  5
E72
330
A
100
AcDbEntity
  8
1
  6
Continuous
100
AcDbLine
 10
699.6898313948579
 20
412.6838003926025
 30
0.0
 11
715.689831394858
 21
412.6838003926025
 31
0.0
  0
LINE
  5
E74
330
A
100
AcDbEntity
  8
1
  6
Continuous
100
AcDbLine
 10
742.8898313948575
 20
476.9656558216025
 30
0.0
 11
742.8898313948575
 21
477.5918017351026
 31
0.0
  0
ARC
  5
E75
330
A
100
AcDbEntity
  8
1
  6
Continuous
100
AcDbCircle
 10
522.5118224143578
 20
506.639239985602
 30
0.0
 40
30.73880181549999
100
AcDbArc
 50
254.8722078297
 51
263.5447666234039
  0
LINE
  5
E79
330
A
100
AcDbEntity
  8
1
  6
Continuous
100
AcDbLine
 10
514.4898313948579
 20
476.9656558216025
 30
0.0
 11
514.4898313948579
 21
477.5941931261025
 31
0.0
  0
LINE
  5
E7B
330
A
100
AcDbEntity
  8
1
  6
Continuous
100
AcDbLine
 10
539.0419323658579
 20
465.9834451741019
 30
0.0
 11
539.0419323658579
 21
466.6827819676024
 31
0.0
  0
LINE
  5
E7D
330
A
100
AcDbEntity
  8
1
  6
Continuous
100
AcDbLine
 10
537.5678105213578
 20
415.1838003926025
 30
0.0
 11
537.5678105213578
 21
418.0797733271025
 31
0.0
  0
ARC
  5
E7F
330
A
100
AcDbEntity
  8
1
  6
Continuous
100
AcDbCircle
 10
728.6068536423579
 20
418.6837967266026
 30
0.0
 40
3.499996333999999
100
AcDbArc
 50
270.0
 51
357.0487462061998
  0
LINE
  5
E81
330
A
100
AcDbEntity
  8
1
  6
Continuous
100
AcDbLine
 10
539.0419323658579
 20
465.9834451741019
 30
0.0
 11
537.5678105213578
 21
418.0797733271025
 31
0.0
  0
ARC
  5
E83
330
A
100
AcDbEntity
  8
1
  6
Continuous
100
AcDbCircle
 10
734.6124875593574
 20
499.9016732066025
 30
0.0
 40
33.334324975
100
AcDbArc
 50
264.9132899336
 51
274.1984631958999
  0
SPLINE
  5
E86
330
A
100
AcDbEntity
  8
1
  6
Continuous
100
AcDbSpline
210
0.0
220
0.0
230
1.0
 70
     8
 71
     3
 72
    12
 73
     8
 74
     0
 42
0.0000000001
 43
0.0000000001
 40
0.0
 40
0.0
 40
0.0
 40
0.0
 40
0.25
 40
0.25
 40
0.5
 40
0.5
 40
1.0
 40
1.0
 40
1.0
 40
1.0
 10
513.6898313946813
 20
476.9656558215849
 30
0.0
 10
513.6898313946813
 20
476.8338107801509
 30
0.0
 10
513.9722732065154
 20
476.7047193398759
 30
0.0
 10
515.0743931253649
 20
476.46075741914
 30
0.0
 10
515.8864622996528
 20
476.3487419752239
 30
0.0
 10
518.9509225947679
 20
476.062321766258
 30
0.0
 10
521.8254883053614
 20
475.9419817633411
 30
0.0
 10
524.8437557460475
 20
475.923726175472
 30
0.0
  0
ARC
  5
E89
330
A
100
AcDbEntity
  8
1
  6
Continuous
100
AcDbCircle
 10
628.6898313943579
 20
-27560.21528039489
 30
0.0
 40
28027.1030536755
100
AcDbArc
 50
89.78950393039999
 51
90.21049606959998
  0
SPLINE
  5
E8A
330
A
100
AcDbEntity
  8
1
  6
Continuous
100
AcDbSpline
210
0.0
220
0.0
230
1.0
 70
     8
 71
     3
 72
     8
 73
     4
 74
     0
 42
0.0000000001
 43
0.0000000001
 40
0.0
 40
0.0
 40
0.0
 40
0.0
 40
0.0115272858319213
 40
0.0115272858319213
 40
0.0115272858319213
 40
0.0115272858319213
 10
525.7227051412473
 20
466.698630206437
 30
0.0
 10
525.6816736155209
 20
466.698565054135
 30
0.0
 10
525.6407193081074
 20
466.698492570186
 30
0.0
 10
525.5998422008368
 20
466.6984131424596
 30
0.0
  0
SPLINE
  5
E8B
330
A
100
AcDbEntity
  8
1
  6
Continuous
100
AcDbSpline
210
0.0
220
0.0
230
1.0
 70
     8
 71
     3
 72
    12
 73
     8
 74
     0
 42
0.0000000001
 43
0.0000000001
 40
0.0115272858319213
 40
0.0115272858319213
 40
0.0115272858319213
 40
0.0115272858319213
 40
0.2499999999999978
 40
0.2499999999999978
 40
0.4999999999999958
 40
0.4999999999999958
 40
0.5617450156704609
 40
0.5617450156704609
 40
0.5617450156704609
 40
0.5617450156704609
 10
525.5998422008368
 20
466.6984131424596
 30
0.0
 10
524.7541899926564
 20
466.696769967661
 30
0.0
 10
523.941577885995
 20
466.6921549962745
 30
0.0
 10
522.3444214485823
 20
466.6836490431855
 30
0.0
 10
521.6069909138714
 20
466.6802202954939
 30
0.0
 10
520.7846944968049
 20
466.6864404660235
 30
0.0
 10
520.6284228160838
 20
466.688183751491
 30
0.0
 10
520.4786740189274
 20
466.6905468573305
 30
0.0
  0
ARC
  5
E8D
330
A
100
AcDbEntity
  8
1
  6
Continuous
100
AcDbCircle
 10
628.6887819383573
 20
425.5954131581025
 30
0.0
 40
41.29306968499999
100
AcDbArc
 50
84.36366053689999
 51
95.64116780029999
  0
LINE
  5
E8E
330
A
100
AcDbEntity
  8
1
  6
Continuous
100
AcDbLine
 10
732.1022133268574
 20
418.5019123546025
 30
0.0
 11
732.6470487783579
 21
428.9854529276024
 31
0.0
  0
LINE
  5
E8F
330
A
100
AcDbEntity
  8
1
  6
Continuous
100
AcDbLine
 10
521.7020707543579
 20
466.6827819676024
 30
0.0
 11
624.7334902538574
 21
466.6827819676024
 31
0.0
  0
LINE
  5
E90
330
A
100
AcDbEntity
  8
1
  6
Continuous
100
AcDbLine
 10
513.7063752718579
 20
476.9624079841025
 30
0.0
 11
513.7160115963574
 21
476.7526548016025
 31
0.0
  0
ARC
  5
E91
330
A
100
AcDbEntity
  8
1
  6
Continuous
100
AcDbCircle
 10
697.0733377013574
 20
479.2442443171019
 30
0.0
 40
46.65156505849999
100
AcDbArc
 50
348.3696990243
 51
356.5140558907999
  0
ARC
  5
E92
330
A
100
AcDbEntity
  8
1
  6
Continuous
100
AcDbCircle
 10
528.7728091473578
 20
418.6837967266026
 30
0.0
 40
3.499996333999999
100
AcDbArc
 50
182.9512537938
 51
270.0
  0
LINE
  5
E95
330
A
100
AcDbEntity
  8
1
  6
Continuous
100
AcDbLine
 10
537.5678105213578
 20
415.1838003926025
 30
0.0
 11
528.7727230753573
 21
415.1838003926025
 31
0.0
  0
LINE
  5
E96
330
A
100
AcDbEntity
  8
1
  6
Continuous
100
AcDbLine
 10
728.606943365358
 20
415.1838003926025
 30
0.0
 11
719.8118522678579
 21
415.1838003926025
 31
0.0
  0
LINE
  5
E97
330
A
100
AcDbEntity
  8
1
  6
Continuous
100
AcDbLine
 10
719.8118522678579
 20
415.1838003926025
 30
0.0
 11
537.5678105213578
 21
415.1838003926025
 31
0.0
  0
ELLIPSE
  5
EA0
330
A
100
AcDbEntity
  8
1
  6
Continuous
100
AcDbEllipse
 10
628.6898313948579
 20
606.3436679391024
 30
0.0
 11
1500.00000001212
 21
0.0000000000086875
 31
0.0
210
0.0
220
0.0
230
1.0
 40
0.0871557427
 41
4.64310284110754
 42
4.781675119661736
  0
SPLINE
  5
EA2
330
A
100
AcDbEntity
  8
1
  6
Continuous
100
AcDbSpline
210
0.0
220
0.0
230
1.0
 70
     8
 71
     3
 72
    12
 73
     8
 74
     0
 42
0.0000000001
 43
0.0000000001
 40
0.0
 40
0.0
 40
0.0
 40
0.0
 40
0.2499999999999992
 40
0.2499999999999992
 40
0.4999999999999984
 40
0.4999999999999984
 40
1.0
 40
1.0
 40
1.0
 40
1.0
 10
732.5359070433154
 20
475.9237261754695
 30
0.0
 10
734.0450296586545
 20
475.9328539022375
 30
0.0
 10
735.5030803968229
 20
475.9663483587655
 30
0.0
 10
738.2192128986319
 20
476.079063628039
 30
0.0
 10
739.4451421603133
 20
476.1574252136299
 30
0.0
 10
742.5114058207294
 20
476.4436987783455
 30
0.0
 10
743.6898313946819
 20
476.7019637982535
 30
0.0
 10
743.6898313946812
 20
476.9656558215825
 30
0.0
  0
LINE
  5
EA3
330
A
100
AcDbEntity
  8
1
  6
Continuous
100
AcDbLine
 10
513.6898313948579
 20
476.9656558216025
 30
0.0
 11
513.6898313948579
 21
477.961850519602
 31
0.0
  0
LINE
  5
EA4
330
A
100
AcDbEntity
  8
1
  6
Continuous
100
AcDbLine
 10
743.6898313948579
 20
477.961850519602
 30
0.0
 11
743.6898313948579
 21
476.9656558216025
 31
0.0
  0
LINE
  5
EA5
330
A
100
AcDbEntity
  8
1
  6
Continuous
100
AcDbLine
 10
739.6898313948579
 20
416.7386642421025
 30
0.0
 11
739.6898313948579
 21
466.0875080096025
 31
0.0
  0
LINE
  5
EA7
330
A
100
AcDbEntity
  8
1
  6
Continuous
100
AcDbLine
 10
739.6898313948579
 20
466.0875080096025
 30
0.0
 11
739.6898313948579
 21
466.9196218676025
 31
0.0
  0
ARC
  5
EA9
330
A
100
AcDbEntity
  8
1
  6
Continuous
100
AcDbCircle
 10
1106.218766296857
 20
419.9654067776024
 30
0.0
 40
373.6850358915
100
AcDbArc
 50
175.4368343184999
 51
175.9737692936
  0
ARC
  5
EAA
330
A
100
AcDbEntity
  8
1
  6
Continuous
100
AcDbCircle
 10
1106.218766296857
 20
419.9654067776024
 30
0.0
 40
373.6850358915
100
AcDbArc
 50
175.9737692936
 51
178.0028416692999
  0
ARC
  5
EAB
330
A
100
AcDbEntity
  8
1
  6
Continuous
100
AcDbCircle
 10
1106.218766296857
 20
419.9654067776024
 30
0.0
 40
373.6850358915
100
AcDbArc
 50
178.0028416692999
 51
178.6172983431
  0
ARC
  5
EB2
330
A
100
AcDbEntity
  8
1
  6
Continuous
100
AcDbCircle
 10
728.6932410773574
 20
418.6884252356025
 30
0.0
 40
3.369516522
100
AcDbArc
 50
315.8151644178999
 51
315.8672658075
  0
ARC
  5
EB8
330
A
100
AcDbEntity
  8
1
  6
Continuous
100
AcDbCircle
 10
520.1118220828578
 20
479.0341243176025
 30
0.0
 40
12.346028645
100
AcDbArc
 50
257.2165988201998
 51
271.4726718169
  0
LINE
  5
EB9
330
A
100
AcDbEntity
  8
1
  6
Continuous
100
AcDbLine
 10
715.689831394858
 20
412.6838003926025
 30
0.0
 11
715.689831394858
 21
415.1838003926025
 31
0.0
  0
ARC
  5
EBA
330
A
100
AcDbEntity
  8
1
  6
Continuous
100
AcDbCircle
 10
737.3166346623578
 20
478.829711965602
 30
0.0
 40
12.136287773
100
AcDbArc
 50
269.0698543879999
 51
282.7686863008
  0
ARC
  5
EBC
330
A
100
AcDbEntity
  8
1
  6
Continuous
100
AcDbCircle
 10
560.4787009883574
 20
479.3266156116019
 30
0.0
 40
46.833475137
100
AcDbArc
 50
183.1505549443999
 51
191.6862267706999
  0
LINE
  5
EBD
330
A
100
AcDbEntity
  8
1
  6
Continuous
100
AcDbLine
 10
743.6385854638578
 20
476.4076577776021
 30
0.0
 11
743.6726090633579
 21
476.9627217016025
 31
0.0
  0
ARC
  5
EBE
330
A
100
AcDbEntity
  8
1
  6
Continuous
100
AcDbCircle
 10
739.150219811858
 20
470.595877419602
 30
0.0
 40
3.703576392
100
AcDbArc
 50
286.9118975652
 51
348.1491106537
  0
ARC
  5
EBF
330
A
100
AcDbEntity
  8
1
  6
Continuous
100
AcDbCircle
 10
518.2387240793579
 20
470.601470708102
 30
0.0
 40
3.710745710499999
100
AcDbArc
 50
191.8877359883999
 51
252.7358829146
  0
LINE
  5
EC0
330
A
100
AcDbEntity
  8
1
  6
Continuous
100
AcDbLine
 10
733.7232407408579
 20
449.693176821102
 30
0.0
 11
734.606199997358
 21
466.6827819676024
 31
0.0
  0
LINE
  5
EC1
330
A
100
AcDbEntity
  8
1
  6
Continuous
100
AcDbLine
 10
522.7734627918573
 20
466.6827819676024
 30
0.0
 11
525.2774498558578
 21
418.5019047856024
 31
0.0
  0
LINE
  5
EC2
330
A
100
AcDbEntity
  8
1
  6
Continuous
100
AcDbLine
 10
731.8547063638574
 20
416.6702881416025
 30
0.0
 11
739.6898313948579
 21
416.7386642421025
 31
0.0
  0
LINE
  5
EC3
330
A
100
AcDbEntity
  8
1
  6
Continuous
100
AcDbLine
 10
699.6898313948579
 20
415.1838003926025
 30
0.0
 11
699.6898313948579
 21
412.6838003926025
 31
0.0
  0
LINE
  5
EC4
330
A
100
AcDbEntity
  8
1
  6
Continuous
100
AcDbLine
 10
746.1898313948579
 20
459.1202960246024
 30
0.0
 11
746.1898313948579
 21
426.4112022506025
 31
0.0
  0
LINE
  5
ECB
330
A
100
AcDbEntity
  8
1
  6
Continuous
100
AcDbLine
 10
746.1898313948579
 20
459.7338050796024
 30
0.0
 11
746.1898313948579
 21
459.1202960246024
 31
0.0
  0
LINE
  5
ED3
330
A
100
AcDbEntity
  8
1
  6
Continuous
100
AcDbLine
 10
739.6898313948579
 20
424.3678994936026
 30
0.0
 11
744.209014919858
 21
424.4112265646024
 31
0.0
  0
ARC
  5
ED4
330
A
100
AcDbEntity
  8
1
  6
Continuous
100
AcDbCircle
 10
744.1898313948574
 20
426.4112022506025
 30
0.0
 40
2.0
100
AcDbArc
 50
270.5493476666
 51
0.0
  0
LINE
  5
ED5
330
A
100
AcDbEntity
  8
1
  6
Continuous
100
AcDbLine
 10
744.2090138883574
 20
461.733771958102
 30
0.0
 11
739.6898313948579
 21
461.7771099376025
 31
0.0
  0
ARC
  5
ED6
330
A
100
AcDbEntity
  8
1
  6
Continuous
100
AcDbCircle
 10
744.1898313948574
 20
459.7338050796024
 30
0.0
 40
2.0
100
AcDbArc
 50
0.0
 51
89.45065233340001
  0
LINE
  5
ED7
330
A
100
AcDbEntity
  8
1
  6
Continuous
100
AcDbLine
 10
541.6898313948579
 20
412.6838003926025
 30
0.0
 11
557.6898313948579
 21
412.6838003926025
 31
0.0
  0
LINE
  5
ED8
330
A
100
AcDbEntity
  8
1
  6
Continuous
100
AcDbLine
 10
541.6898313948579
 20
415.1838003926025
 30
0.0
 11
541.6898313948579
 21
412.6838003926025
 31
0.0
  0
LINE
  5
ED9
330
A
100
AcDbEntity
  8
1
  6
Continuous
100
AcDbLine
 10
557.6898313948579
 20
412.6838003926025
 30
0.0
 11
557.6898313948579
 21
415.1838003926025
 31
0.0
  0
ELLIPSE
  5
EDA
330
A
100
AcDbEntity
  8
1
  6
Continuous
100
AcDbEllipse
 10
650.6898313948579
 20
493.5407226746025
 30
0.0
 11
1.000000000000001
 21
-0.000000000000014
 31
0.0
210
0.0
220
0.0
230
1.0
 40
0.0871557427
 41
4.71238898038469
 42
6.283185307179584
  0
LINE
  5
EDB
330
A
100
AcDbEntity
  8
1
  6
Continuous
100
AcDbLine
 10
651.6898313948574
 20
496.5040179276025
 30
0.0
 11
651.6898313948574
 21
493.5407226746025
 31
0.0
  0
ELLIPSE
  5
EDC
330
A
100
AcDbEntity
  8
1
  6
Continuous
100
AcDbEllipse
 10
650.6898313948579
 20
496.5040179276025
 30
0.0
 11
-1.000000000000007
 21
0.000000000000014
 31
0.0
210
0.0
220
0.0
230
1.0
 40
0.0871557427
 41
3.141592653589951
 42
4.71238898038469
  0
LINE
  5
EDD
330
A
100
AcDbEntity
  8
1
  6
Continuous
100
AcDbLine
 10
540.689831394858
 20
496.5911736706025
 30
0.0
 11
650.6898313948579
 21
496.5911736706025
 31
0.0
  0
ELLIPSE
  5
EDE
330
A
100
AcDbEntity
  8
1
  6
Continuous
100
AcDbEllipse
 10
540.689831394858
 20
496.5040179276025
 30
0.0
 11
-1.000000000000001
 21
0.000000000000007
 31
0.0
210
0.0
220
0.0
230
1.0
 40
0.0871557427
 41
4.712388980384688
 42
6.283185307179584
  0
LINE
  5
EDF
330
A
100
AcDbEntity
  8
1
  6
Continuous
100
AcDbLine
 10
523.3898313948579
 20
490.375308658102
 30
0.0
 11
523.3898313948579
 21
498.1425458916019
 31
0.0
  0
LINE
  5
EE0
330
A
100
AcDbEntity
  8
1
  6
Continuous
100
AcDbLine
 10
539.6898313948579
 20
493.5407226746025
 30
0.0
 11
539.6898313948579
 21
496.5040179276025
 31
0.0
  0
ELLIPSE
  5
EE1
330
A
100
AcDbEntity
  8
1
  6
Continuous
100
AcDbEllipse
 10
540.689831394858
 20
493.5407226746025
 30
0.0
 11
1.000000000000014
 21
-0.000000000000014
 31
0.0
210
0.0
220
0.0
230
1.0
 40
0.0871557427
 41
3.141592653589792
 42
4.71238898038469
  0
LINE
  5
EE2
330
A
100
AcDbEntity
  8
1
  6
Continuous
100
AcDbLine
 10
650.6898313948579
 20
493.4535669316024
 30
0.0
 11
540.689831394858
 21
493.4535669316024
 31
0.0
  0
LINE
  5
EE3
330
A
100
AcDbEntity
  8
1
  6
Continuous
100
AcDbLine
 10
526.889831394858
 20
498.4475909911024
 30
0.0
 11
730.4898313948578
 21
498.4475909911024
 31
0.0
  0
ELLIPSE
  5
EE4
330
A
100
AcDbEntity
  8
1
  6
Continuous
100
AcDbEllipse
 10
730.4898313948578
 20
498.1425458916019
 30
0.0
 11
-3.499999999999975
 21
0.0000000000000415
 31
0.0
210
0.0
220
0.0
230
1.0
 40
0.0871557427
 41
3.141592653589696
 42
4.71238898038469
  0
LINE
  5
EE5
330
A
100
AcDbEntity
  8
1
  6
Continuous
100
AcDbLine
 10
733.9898313948574
 20
498.1425458916019
 30
0.0
 11
733.9898313948574
 21
490.375308658102
 31
0.0
  0
ELLIPSE
  5
EE6
330
A
100
AcDbEntity
  8
1
  6
Continuous
100
AcDbEllipse
 10
540.689831394858
 20
496.3794935906021
 30
0.0
 11
-1.000000000000001
 21
0.000000000000014
 31
0.0
210
0.0
220
0.0
230
1.0
 40
0.0871557427
 41
4.71238898038469
 42
6.283185307179584
  0
ELLIPSE
  5
EE7
330
A
100
AcDbEntity
  8
1
  6
Continuous
100
AcDbEllipse
 10
650.6898313948579
 20
496.3794935906021
 30
0.0
 11
-1.000000000000007
 21
0.000000000000014
 31
0.0
210
0.0
220
0.0
230
1.0
 40
0.0871557427
 41
3.141592653589135
 42
4.71238898038469
  0
LINE
  5
EE8
330
A
100
AcDbEntity
  8
1
  6
Continuous
100
AcDbLine
 10
540.689831394858
 20
496.4666493331024
 30
0.0
 11
650.6898313948579
 21
496.4666493331024
 31
0.0
  0
ELLIPSE
  5
EE9
330
A
100
AcDbEntity
  8
1
  6
Continuous
100
AcDbEllipse
 10
526.889831394858
 20
498.1425458916019
 30
0.0
 11
-3.499999999999989
 21
0.0000000000000485
 31
0.0
210
0.0
220
0.0
230
1.0
 40
0.0871557427
 41
4.71238898038469
 42
6.283185307179584
  0
LINE
  5
EEB
330
A
100
AcDbEntity
  8
1
  6
Continuous
100
AcDbLine
 10
650.6898313948579
 20
496.5911736706025
 30
0.0
 11
650.6898313948579
 21
496.4666493331024
 31
0.0
  0
ELLIPSE
  5
EEC
330
A
100
AcDbEntity
  8
1
  6
Continuous
100
AcDbEllipse
 10
540.689831394858
 20
496.1802546511025
 30
0.0
 11
-1.000000000000001
 21
0.000000000000014
 31
0.0
210
0.0
220
0.0
230
1.0
 40
0.0871557427
 41
4.71238898038469
 42
6.283185307179584
  0
ELLIPSE
  5
EED
330
A
100
AcDbEntity
  8
1
  6
Continuous
100
AcDbEllipse
 10
650.6898313948579
 20
496.1802546511025
 30
0.0
 11
-1.000000000000007
 21
0.000000000000014
 31
0.0
210
0.0
220
0.0
230
1.0
 40
0.0871557427
 41
3.141592653589951
 42
4.71238898038469
  0
LINE
  5
EEE
330
A
100
AcDbEntity
  8
1
  6
Continuous
100
AcDbLine
 10
540.689831394858
 20
496.2674103936025
 30
0.0
 11
650.6898313948579
 21
496.2674103936025
 31
0.0
  0
ELLIPSE
  5
EEF
330
A
100
AcDbEntity
  8
1
  6
Continuous
100
AcDbEllipse
 10
650.6898313948579
 20
496.3794935906021
 30
0.0
 11
-1.000000000000007
 21
0.000000000000014
 31
0.0
210
0.0
220
0.0
230
1.0
 40
0.0871557427
 41
3.141592653589135
 42
4.71238898038469
  0
LINE
  5
EF0
330
A
100
AcDbEntity
  8
1
  6
Continuous
100
AcDbLine
 10
540.689831394858
 20
496.4666493331024
 30
0.0
 11
650.6898313948579
 21
496.4666493331024
 31
0.0
  0
ELLIPSE
  5
EF1
330
A
100
AcDbEntity
  8
1
  6
Continuous
100
AcDbEllipse
 10
540.689831394858
 20
496.3794935906021
 30
0.0
 11
-1.000000000000001
 21
0.000000000000014
 31
0.0
210
0.0
220
0.0
230
1.0
 40
0.0871557427
 41
4.71238898038469
 42
6.283185307179584
  0
LINE
  5
EF2
330
A
100
AcDbEntity
  8
1
  6
Continuous
100
AcDbLine
 10
650.6898313948579
 20
496.2674103936025
 30
0.0
 11
650.6898313948579
 21
496.4666493331024
 31
0.0
  0
LINE
  5
EF4
330
A
100
AcDbEntity
  8
1
  6
Continuous
100
AcDbLine
 10
523.3899196333574
 20
489.3495739326024
 30
0.0
 11
523.3899196333574
 21
489.514127196102
 31
0.0
  0
LINE
  5
EF5
330
A
100
AcDbEntity
  8
1
  6
Continuous
100
AcDbLine
 10
524.8899196333574
 20
489.6448608101025
 30
0.0
 11
732.4899196333574
 21
489.6448608101025
 31
0.0
  0
ELLIPSE
  5
EF6
330
A
100
AcDbEntity
  8
1
  6
Continuous
100
AcDbEllipse
 10
732.4899196333574
 20
489.514127196102
 30
0.0
 11
-1.499999999999959
 21
0.000000000000021
 31
0.0
210
0.0
220
0.0
230
1.0
 40
0.0871557427
 41
3.141592653589951
 42
4.71238898038469
  0
LINE
  5
EF7
330
A
100
AcDbEntity
  8
1
  6
Continuous
100
AcDbLine
 10
733.9899196333578
 20
489.514127196102
 30
0.0
 11
733.9899196333578
 21
489.339034827602
 31
0.0
  0
ELLIPSE
  5
EF8
330
A
100
AcDbEntity
  8
1
  6
Continuous
100
AcDbEllipse
 10
524.8899196333574
 20
489.514127196102
 30
0.0
 11
-1.500000000000001
 21
0.000000000000021
 31
0.0
210
0.0
220
0.0
230
1.0
 40
0.0871557427
 41
4.71238898038469
 42
6.283185307179584
  0
LINE
  5
EF9
330
A
100
AcDbEntity
  8
1
  6
Continuous
100
AcDbLine
 10
1423.620223590857
 20
419.1838003926025
 30
0.0
 11
1438.620223590858
 21
419.1838003926025
 31
0.0
  0
LINE
  5
EFA
330
A
100
AcDbEntity
  8
1
  6
Continuous
100
AcDbLine
 10
1451.620223590857
 20
419.1838003926025
 30
0.0
 11
1455.620223590857
 21
419.1838003926025
 31
0.0
  0
LINE
  5
EFB
330
A
100
AcDbEntity
  8
1
  6
Continuous
100
AcDbLine
 10
1468.620223590858
 20
419.1838003926025
 30
0.0
 11
1483.620223590857
 21
419.1838003926025
 31
0.0
  0
LINE
  5
EFC
330
A
100
AcDbEntity
  8
1
  6
Continuous
100
AcDbLine
 10
1524.620223590858
 20
442.1838003926025
 30
0.0
 11
1550.620223590857
 21
442.1838003926025
 31
0.0
  0
LINE
  5
EFD
330
A
100
AcDbEntity
  8
1
  6
Continuous
100
AcDbLine
 10
1550.620223590857
 20
443.6838003926025
 30
0.0
 11
1550.620223590857
 21
442.1838003926025
 31
0.0
  0
LINE
  5
EFE
330
A
100
AcDbEntity
  8
1
  6
Continuous
100
AcDbLine
 10
1524.620223590858
 20
443.6838003926025
 30
0.0
 11
1524.620223590858
 21
442.1838003926025
 31
0.0
  0
LINE
  5
EFF
330
A
100
AcDbEntity
  8
1
  6
Continuous
100
AcDbLine
 10
1356.620223590857
 20
442.1838003926025
 30
0.0
 11
1382.620223590857
 21
442.1838003926025
 31
0.0
  0
LINE
  5
F00
330
A
100
AcDbEntity
  8
1
  6
Continuous
100
AcDbLine
 10
1382.620223590857
 20
443.6838003926025
 30
0.0
 11
1382.620223590857
 21
442.1838003926025
 31
0.0
  0
LINE
  5
F01
330
A
100
AcDbEntity
  8
1
  6
Continuous
100
AcDbLine
 10
1356.620223590857
 20
443.6838003926025
 30
0.0
 11
1356.620223590857
 21
442.1838003926025
 31
0.0
  0
LINE
  5
F02
330
A
100
AcDbEntity
  8
1
  6
Continuous
100
AcDbLine
 10
1483.620223590857
 20
420.1838003926025
 30
0.0
 11
1423.620223590857
 21
420.1838003926025
 31
0.0
  0
CIRCLE
  5
F03
330
A
100
AcDbEntity
  8
1
  6
Continuous
100
AcDbCircle
 10
1493.620223590857
 20
431.1838003926025
 30
0.0
 40
1.65
  0
CIRCLE
  5
F04
330
A
100
AcDbEntity
  8
1
  6
Continuous
100
AcDbCircle
 10
1333.620223590858
 20
431.1838003926025
 30
0.0
 40
1.65
  0
CIRCLE
  5
F05
330
A
100
AcDbEntity
  8
1
  6
Continuous
100
AcDbCircle
 10
1413.620223590857
 20
431.1838003926025
 30
0.0
 40
1.65
  0
LINE
  5
F06
330
A
100
AcDbEntity
  8
1
  6
Continuous
100
AcDbLine
 10
1483.620223590857
 20
418.1838003926024
 30
0.0
 11
1483.620223590857
 21
428.183800392602
 31
0.0
  0
LINE
  5
F07
330
A
100
AcDbEntity
  8
1
  6
Continuous
100
AcDbLine
 10
1423.620223590857
 20
428.183800392602
 30
0.0
 11
1423.620223590857
 21
418.1838003926024
 31
0.0
  0
LINE
  5
F08
330
A
100
AcDbEntity
  8
1
  6
Continuous
100
AcDbLine
 10
1478.620223590858
 20
433.183800392602
 30
0.0
 11
1428.620223590858
 21
433.183800392602
 31
0.0
  0
ARC
  5
F09
330
A
100
AcDbEntity
  8
1
  6
Continuous
100
AcDbCircle
 10
1326.620223590857
 20
418.1838003926024
 30
0.0
 40
3.0
100
AcDbArc
 50
180.0
 51
270.0
  0
ARC
  5
F0D
330
A
100
AcDbEntity
  8
1
  6
Continuous
100
AcDbCircle
 10
1580.620223590857
 20
418.1838003926024
 30
0.0
 40
3.0
100
AcDbArc
 50
270.0
 51
0.0
  0
LINE
  5
F0F
330
A
100
AcDbEntity
  8
1
  6
Continuous
100
AcDbLine
 10
1383.120223590857
 20
442.1838003926025
 30
0.0
 11
1383.120223590857
 21
443.6838003926025
 31
0.0
  0
LINE
  5
F10
330
A
100
AcDbEntity
  8
1
  6
Continuous
100
AcDbLine
 10
1356.120223590858
 20
442.1838003926025
 30
0.0
 11
1383.120223590857
 21
442.1838003926025
 31
0.0
  0
LINE
  5
F11
330
A
100
AcDbEntity
  8
1
  6
Continuous
100
AcDbLine
 10
1356.120223590858
 20
443.6838003926025
 30
0.0
 11
1356.120223590858
 21
442.1838003926025
 31
0.0
  0
LINE
  5
F12
330
A
100
AcDbEntity
  8
1
  6
Continuous
100
AcDbLine
 10
1524.120223590857
 20
442.1838003926025
 30
0.0
 11
1524.120223590857
 21
443.6838003926025
 31
0.0
  0
LINE
  5
F13
330
A
100
AcDbEntity
  8
1
  6
Continuous
100
AcDbLine
 10
1483.620223590857
 20
415.1838003926025
 30
0.0
 11
1468.620223590858
 21
415.1838003926025
 31
0.0
  0
LINE
  5
F14
330
A
100
AcDbEntity
  8
1
  6
Continuous
100
AcDbLine
 10
1438.620223590858
 20
415.1838003926025
 30
0.0
 11
1423.620223590857
 21
415.1838003926025
 31
0.0
  0
LINE
  5
F15
330
A
100
AcDbEntity
  8
1
  6
Continuous
100
AcDbLine
 10
1551.120223590857
 20
443.6838003926025
 30
0.0
 11
1551.120223590857
 21
442.1838003926025
 31
0.0
  0
LINE
  5
F16
330
A
100
AcDbEntity
  8
1
  6
Continuous
100
AcDbLine
 10
1551.120223590857
 20
442.1838003926025
 30
0.0
 11
1524.120223590857
 21
442.1838003926025
 31
0.0
  0
LINE
  5
F17
330
A
100
AcDbEntity
  8
1
  6
Continuous
100
AcDbLine
 10
1423.620223590857
 20
418.1838003926024
 30
0.0
 11
1438.620223590858
 21
418.1838003926024
 31
0.0
  0
LINE
  5
F18
330
A
100
AcDbEntity
  8
1
  6
Continuous
100
AcDbLine
 10
1468.620223590858
 20
418.1838003926024
 30
0.0
 11
1483.620223590857
 21
418.1838003926024
 31
0.0
  0
LINE
  5
F1D
330
A
100
AcDbEntity
  8
1
  6
Continuous
100
AcDbLine
 10
1583.620223590858
 20
443.6838003926025
 30
0.0
 11
1583.620223590858
 21
418.1838003926024
 31
0.0
  0
LINE
  5
F1E
330
A
100
AcDbEntity
  8
1
  6
Continuous
100
AcDbLine
 10
1323.620223590857
 20
418.1838003926024
 30
0.0
 11
1323.620223590857
 21
443.6838003926025
 31
0.0
  0
LINE
  5
F1F
330
A
100
AcDbEntity
  8
1
  6
Continuous
100
AcDbLine
 10
1423.620223590857
 20
415.1838003926025
 30
0.0
 11
1326.620223590857
 21
415.1838003926025
 31
0.0
  0
LINE
  5
F20
330
A
100
AcDbEntity
  8
1
  6
Continuous
100
AcDbLine
 10
1580.620223590857
 20
415.1838003926025
 30
0.0
 11
1483.620223590857
 21
415.1838003926025
 31
0.0
  0
LINE
  5
F21
330
A
100
AcDbEntity
  8
1
  6
Continuous
100
AcDbLine
 10
1423.620223590857
 20
415.1838003926025
 30
0.0
 11
1423.620223590857
 21
418.1838003926024
 31
0.0
  0
LINE
  5
F22
330
A
100
AcDbEntity
  8
1
  6
Continuous
100
AcDbLine
 10
1483.620223590857
 20
418.1838003926024
 30
0.0
 11
1483.620223590857
 21
415.1838003926025
 31
0.0
  0
ARC
  5
F23
330
A
100
AcDbEntity
  8
1
  6
Continuous
100
AcDbCircle
 10
1428.620223590858
 20
428.183800392602
 30
0.0
 40
5.0
100
AcDbArc
 50
90.0
 51
180.0
  0
ARC
  5
F24
330
A
100
AcDbEntity
  8
1
  6
Continuous
100
AcDbCircle
 10
1478.620223590858
 20
428.183800392602
 30
0.0
 40
5.0
100
AcDbArc
 50
0.0
 51
90.0
  0
CIRCLE
  5
F25
330
A
100
AcDbEntity
  8
1
  6
Continuous
100
AcDbCircle
 10
1413.620223590857
 20
431.1838003926025
 30
0.0
 40
2.0
  0
CIRCLE
  5
F26
330
A
100
AcDbEntity
  8
1
  6
Continuous
100
AcDbCircle
 10
1333.620223590858
 20
431.1838003926025
 30
0.0
 40
2.0
  0
CIRCLE
  5
F27
330
A
100
AcDbEntity
  8
1
  6
Continuous
100
AcDbCircle
 10
1493.620223590857
 20
431.1838003926025
 30
0.0
 40
2.0
  0
LINE
  5
F28
330
A
100
AcDbEntity
  8
1
  6
Continuous
100
AcDbLine
 10
1438.620223590858
 20
413.6838003926025
 30
0.0
 11
1451.620223590857
 21
413.6838003926025
 31
0.0
  0
LINE
  5
F29
330
A
100
AcDbEntity
  8
1
  6
Continuous
100
AcDbLine
 10
1451.620223590857
 20
413.6838003926025
 30
0.0
 11
1451.620223590857
 21
420.1838003926025
 31
0.0
  0
LINE
  5
F2A
330
A
100
AcDbEntity
  8
1
  6
Continuous
100
AcDbLine
 10
1438.620223590858
 20
420.1838003926025
 30
0.0
 11
1438.620223590858
 21
413.6838003926025
 31
0.0
  0
LINE
  5
F2B
330
A
100
AcDbEntity
  8
1
  6
Continuous
100
AcDbLine
 10
1455.620223590857
 20
413.6838003926025
 30
0.0
 11
1468.620223590858
 21
413.6838003926025
 31
0.0
  0
LINE
  5
F2C
330
A
100
AcDbEntity
  8
1
  6
Continuous
100
AcDbLine
 10
1468.620223590858
 20
413.6838003926025
 30
0.0
 11
1468.620223590858
 21
420.1838003926025
 31
0.0
  0
LINE
  5
F2D
330
A
100
AcDbEntity
  8
1
  6
Continuous
100
AcDbLine
 10
1455.620223590857
 20
420.1838003926025
 30
0.0
 11
1455.620223590857
 21
413.6838003926025
 31
0.0
  0
LINE
  5
F2E
330
A
100
AcDbEntity
  8
1
  6
Continuous
100
AcDbLine
 10
1334.382619283857
 20
414.4692692126024
 30
0.0
 11
1334.382619283857
 21
407.1838003926025
 31
0.0
  0
ARC
  5
F2F
330
A
100
AcDbEntity
  8
1
  6
Continuous
100
AcDbCircle
 10
1336.823147445358
 20
410.6706745956024
 30
0.0
 40
4.515030317999999
100
AcDbArc
 50
91.66423801139996
 51
122.7200094566
  0
ARC
  5
F30
330
A
100
AcDbEntity
  8
1
  6
Continuous
100
AcDbCircle
 10
1336.530629893357
 20
410.5728618051025
 30
0.0
 40
4.6137621895
100
AcDbArc
 50
57.62038109429999
 51
87.99537143770002
  0
ARC
  5
F31
330
A
100
AcDbEntity
  8
1
  6
Continuous
100
AcDbCircle
 10
1343.804036758358
 20
398.7101445806024
 30
0.0
 40
16.47468127449999
100
AcDbArc
 50
90.63928018099998
 51
106.9486735929998
  0
ARC
  5
F32
330
A
100
AcDbEntity
  8
1
  6
Continuous
100
AcDbCircle
 10
1350.417299736858
 20
410.6706745956024
 30
0.0
 40
4.515030317999999
100
AcDbArc
 50
57.27999054339999
 51
88.33576198860001
  0
ARC
  5
F33
330
A
100
AcDbEntity
  8
1
  6
Continuous
100
AcDbCircle
 10
1350.709817288358
 20
410.5728618051025
 30
0.0
 40
4.6137621895
100
AcDbArc
 50
92.0046285623
 51
122.3796189056999
  0
LINE
  5
F34
330
A
100
AcDbEntity
  8
1
  6
Continuous
100
AcDbLine
 10
1339.001421437357
 20
407.1838003926025
 30
0.0
 11
1339.001421437357
 21
414.4692692126024
 31
0.0
  0
LINE
  5
F35
330
A
100
AcDbEntity
  8
1
  6
Continuous
100
AcDbLine
 10
1352.857827897858
 20
407.1838003926025
 30
0.0
 11
1352.857827897858
 21
414.4692692126024
 31
0.0
  0
LINE
  5
F36
330
A
100
AcDbEntity
  8
1
  6
Continuous
100
AcDbLine
 10
1348.239025744357
 20
407.1838003926025
 30
0.0
 11
1348.239025744357
 21
414.4692692126024
 31
0.0
  0
LINE
  5
F37
330
A
100
AcDbEntity
  8
1
  6
Continuous
100
AcDbLine
 10
1352.857827897858
 20
414.4692692126024
 30
0.0
 11
1351.620223590857
 21
415.1838003926025
 31
0.0
  0
LINE
  5
F38
330
A
100
AcDbEntity
  8
1
  6
Continuous
100
AcDbLine
 10
1335.620223590858
 20
415.1838003926025
 30
0.0
 11
1334.382619283857
 21
414.4692692126024
 31
0.0
  0
ARC
  5
F39
330
A
100
AcDbEntity
  8
1
  6
Continuous
100
AcDbCircle
 10
1343.434630887858
 20
398.6986414806025
 30
0.0
 40
16.4862035955
100
AcDbArc
 50
73.0570645376
 51
89.35498168840002
  0
LINE
  5
F3A
330
A
100
AcDbEntity
  8
1
  6
Continuous
100
AcDbLine
 10
1572.857827897857
 20
414.4692692126024
 30
0.0
 11
1571.620223590857
 21
415.1838003926025
 31
0.0
  0
LINE
  5
F3B
330
A
100
AcDbEntity
  8
1
  6
Continuous
100
AcDbLine
 10
1555.620223590858
 20
415.1838003926025
 30
0.0
 11
1554.382619283857
 21
414.4692692126024
 31
0.0
  0
ARC
  5
F3C
330
A
100
AcDbEntity
  8
1
  6
Continuous
100
AcDbCircle
 10
1563.804036758358
 20
398.7101445806024
 30
0.0
 40
16.47468127449999
100
AcDbArc
 50
90.63928018099998
 51
106.9486735929998
  0
ARC
  5
F3D
330
A
100
AcDbEntity
  8
1
  6
Continuous
100
AcDbCircle
 10
1563.434630887858
 20
398.6986414806025
 30
0.0
 40
16.4862035955
100
AcDbArc
 50
73.0570645376
 51
89.35498168840002
  0
ARC
  5
F3E
330
A
100
AcDbEntity
  8
1
  6
Continuous
100
AcDbCircle
 10
1570.417299736858
 20
410.6706745956024
 30
0.0
 40
4.515030317999999
100
AcDbArc
 50
57.27999054339999
 51
88.33576198860001
  0
ARC
  5
F3F
330
A
100
AcDbEntity
  8
1
  6
Continuous
100
AcDbCircle
 10
1570.709817288357
 20
410.5728618051025
 30
0.0
 40
4.6137621895
100
AcDbArc
 50
92.0046285623
 51
122.3796189056999
  0
LINE
  5
F40
330
A
100
AcDbEntity
  8
1
  6
Continuous
100
AcDbLine
 10
1572.857827897857
 20
407.1838003926025
 30
0.0
 11
1572.857827897857
 21
414.4692692126024
 31
0.0
  0
LINE
  5
F41
330
A
100
AcDbEntity
  8
1
  6
Continuous
100
AcDbLine
 10
1568.239025744357
 20
407.1838003926025
 30
0.0
 11
1568.239025744357
 21
414.4692692126024
 31
0.0
  0
LINE
  5
F42
330
A
100
AcDbEntity
  8
1
  6
Continuous
100
AcDbLine
 10
1559.001421437357
 20
407.1838003926025
 30
0.0
 11
1559.001421437357
 21
414.4692692126024
 31
0.0
  0
ARC
  5
F43
330
A
100
AcDbEntity
  8
1
  6
Continuous
100
AcDbCircle
 10
1556.530629893358
 20
410.5728618051025
 30
0.0
 40
4.6137621895
100
AcDbArc
 50
57.62038109429999
 51
87.99537143770002
  0
LINE
  5
F44
330
A
100
AcDbEntity
  8
1
  6
Continuous
100
AcDbLine
 10
1554.382619283857
 20
414.4692692126024
 30
0.0
 11
1554.382619283857
 21
407.1838003926025
 31
0.0
  0
ARC
  5
F45
330
A
100
AcDbEntity
  8
1
  6
Continuous
100
AcDbCircle
 10
1556.823147445357
 20
410.6706745956024
 30
0.0
 40
4.515030317999999
100
AcDbArc
 50
91.66423801139996
 51
122.7200094566
  0
LINE
  5
F48
330
A
100
AcDbEntity
  8
1
  6
Continuous
100
AcDbLine
 10
1354.620223590857
 20
407.1838003926025
 30
0.0
 11
1332.620223590857
 21
407.1838003926025
 31
0.0
  0
LINE
  5
F49
330
A
100
AcDbEntity
  8
1
  6
Continuous
100
AcDbLine
 10
1332.620223590857
 20
407.1838003926025
 30
0.0
 11
1329.620223590858
 21
403.1838003926025
 31
0.0
  0
ARC
  5
F4A
330
A
100
AcDbEntity
  8
1
  6
Continuous
100
AcDbCircle
 10
1331.620223590857
 20
388.1838003926024
 30
0.0
 40
2.0
100
AcDbArc
 50
180.0
 51
270.0
  0
LINE
  5
F4B
330
A
100
AcDbEntity
  8
1
  6
Continuous
100
AcDbLine
 10
1315.608867118357
 20
403.1838003926025
 30
0.0
 11
1307.030839436357
 21
399.1838003926025
 31
0.0
  0
LINE
  5
F4C
330
A
100
AcDbEntity
  8
1
  6
Continuous
100
AcDbLine
 10
1329.620223590858
 20
391.1838003926025
 30
0.0
 11
1329.620223590858
 21
388.1838003926024
 31
0.0
  0
LINE
  5
F4D
330
A
100
AcDbEntity
  8
1
  6
Continuous
100
AcDbLine
 10
1357.620223590857
 20
403.1838003926025
 30
0.0
 11
1354.620223590857
 21
407.1838003926025
 31
0.0
  0
ARC
  5
F4E
330
A
100
AcDbEntity
  8
1
  6
Continuous
100
AcDbCircle
 10
1355.620223590857
 20
388.1838003926024
 30
0.0
 40
2.0
100
AcDbArc
 50
270.0
 51
0.0
  0
LINE
  5
F4F
330
A
100
AcDbEntity
  8
1
  6
Continuous
100
AcDbLine
 10
1380.209607745358
 20
399.1838003926025
 30
0.0
 11
1371.631580063358
 21
403.1838003926025
 31
0.0
  0
LINE
  5
F50
330
A
100
AcDbEntity
  8
1
  6
Continuous
100
AcDbLine
 10
1307.030839436357
 20
399.1838003926025
 30
0.0
 11
1305.620223590858
 21
391.1838003926025
 31
0.0
  0
LINE
  5
F51
330
A
100
AcDbEntity
  8
1
  6
Continuous
100
AcDbLine
 10
1381.620223590857
 20
391.1838003926025
 30
0.0
 11
1380.209607745358
 21
399.1838003926025
 31
0.0
  0
LINE
  5
F52
330
A
100
AcDbEntity
  8
1
  6
Continuous
100
AcDbLine
 10
1357.620223590857
 20
388.1838003926024
 30
0.0
 11
1357.620223590857
 21
391.1838003926025
 31
0.0
  0
LINE
  5
F53
330
A
100
AcDbEntity
  8
1
  6
Continuous
100
AcDbLine
 10
1372.651408976858
 20
399.1838003926025
 30
0.0
 11
1365.890681778858
 21
399.1838003926025
 31
0.0
  0
LINE
  5
F54
330
A
100
AcDbEntity
  8
1
  6
Continuous
100
AcDbLine
 10
1348.400779638357
 20
399.1838003926025
 30
0.0
 11
1338.839667543357
 21
399.1838003926025
 31
0.0
  0
LINE
  5
F55
330
A
100
AcDbEntity
  8
1
  6
Continuous
100
AcDbLine
 10
1307.030839436357
 20
399.1838003926025
 30
0.0
 11
1307.344483533857
 21
399.1838003926025
 31
0.0
  0
LINE
  5
F56
330
A
100
AcDbEntity
  8
1
  6
Continuous
100
AcDbLine
 10
1379.895963647857
 20
399.1838003926025
 30
0.0
 11
1380.209607745358
 21
399.1838003926025
 31
0.0
  0
LINE
  5
F57
330
A
100
AcDbEntity
  8
1
  6
Continuous
100
AcDbLine
 10
1321.349765403357
 20
399.1838003926025
 30
0.0
 11
1314.589038205357
 21
399.1838003926025
 31
0.0
  0
LINE
  5
F58
330
A
100
AcDbEntity
  8
1
  6
Continuous
100
AcDbLine
 10
1338.190693310858
 20
391.1838003926025
 30
0.0
 11
1320.865119077357
 21
391.1838003926025
 31
0.0
  0
LINE
  5
F59
330
A
100
AcDbEntity
  8
1
  6
Continuous
100
AcDbLine
 10
1313.186603717857
 20
391.1838003926025
 30
0.0
 11
1306.010115894357
 21
391.1838003926025
 31
0.0
  0
LINE
  5
F5A
330
A
100
AcDbEntity
  8
1
  6
Continuous
100
AcDbLine
 10
1366.375328104357
 20
391.1838003926025
 30
0.0
 11
1349.049753870858
 21
391.1838003926025
 31
0.0
  0
LINE
  5
F5B
330
A
100
AcDbEntity
  8
1
  6
Continuous
100
AcDbLine
 10
1381.230331287358
 20
391.1838003926025
 30
0.0
 11
1374.053843463858
 21
391.1838003926025
 31
0.0
  0
LINE
  5
F5C
330
A
100
AcDbEntity
  8
1
  6
Continuous
100
AcDbLine
 10
1366.375328104357
 20
391.1838003926025
 30
0.0
 11
1374.053843463858
 21
391.1838003926025
 31
0.0
  0
LINE
  5
F5D
330
A
100
AcDbEntity
  8
1
  6
Continuous
100
AcDbLine
 10
1338.190693310858
 20
391.1838003926025
 30
0.0
 11
1349.049753870858
 21
391.1838003926025
 31
0.0
  0
LINE
  5
F5E
330
A
100
AcDbEntity
  8
1
  6
Continuous
100
AcDbLine
 10
1313.186603717857
 20
391.1838003926025
 30
0.0
 11
1320.865119077357
 21
391.1838003926025
 31
0.0
  0
LINE
  5
F5F
330
A
100
AcDbEntity
  8
1
  6
Continuous
100
AcDbLine
 10
1306.010115894357
 20
391.1838003926025
 30
0.0
 11
1305.620223590858
 21
391.1838003926025
 31
0.0
  0
SPLINE
  5
F60
330
A
100
AcDbEntity
  8
1
  6
Continuous
100
AcDbSpline
210
0.0
220
0.0
230
1.0
 70
     8
 71
     3
 72
    14
 73
    10
 74
     0
 42
0.0000000001
 43
0.0000000001
 40
0.0
 40
0.0
 40
0.0
 40
0.0
 40
0.25
 40
0.25
 40
0.5
 40
0.5
 40
0.75
 40
0.75
 40
1.0
 40
1.0
 40
1.0
 40
1.0
 10
1379.895963647717
 20
399.1838003925936
 30
0.0
 10
1378.738302451892
 20
399.6519865617903
 30
0.0
 10
1377.692153236528
 20
400.0327100764397
 30
0.0
 10
1375.836930590216
 20
400.5637738547478
 30
0.0
 10
1375.032339056552
 20
400.7079819491292
 30
0.0
 10
1373.777524857435
 20
400.7081205386256
 30
0.0
 10
1373.308128729547
 20
400.5645214376485
 30
0.0
 10
1372.727841917557
 20
400.0330828145276
 30
0.0
 10
1372.610575722463
 20
399.6520393470114
 30
0.0
 10
1372.651408976611
 20
399.1838003925936
 30
0.0
  0
ARC
  5
F61
330
A
100
AcDbEntity
  8
1
  6
Continuous
100
AcDbCircle
 10
1357.145730708358
 20
374.9349160331024
 30
0.0
 40
25.7775592695
100
AcDbArc
 50
70.16901638120001
 51
109.8309836187999
  0
SPLINE
  5
F62
330
A
100
AcDbEntity
  8
1
  6
Continuous
100
AcDbSpline
210
0.0
220
0.0
230
1.0
 70
     8
 71
     3
 72
    14
 73
    10
 74
     0
 42
0.0000000001
 43
0.0000000001
 40
0.0
 40
0.0
 40
0.0
 40
0.0
 40
0.25
 40
0.25
 40
0.5
 40
0.5
 40
0.75
 40
0.75
 40
1.0
 40
1.0
 40
1.0
 40
1.0
 10
1314.589038205163
 20
399.1838003925936
 30
0.0
 10
1314.629866856123
 20
399.6519865617903
 30
0.0
 10
1314.512587776941
 20
400.0327100764397
 30
0.0
 10
1313.933558342078
 20
400.5637738547481
 30
0.0
 10
1313.46370324751
 20
400.7079819491292
 30
0.0
 10
1312.209214101788
 20
400.7081205386256
 30
0.0
 10
1311.406532028984
 20
400.5645214376485
 30
0.0
 10
1309.549193096641
 20
400.0330828145276
 30
0.0
 10
1308.502275249334
 20
399.6520393470114
 30
0.0
 10
1307.344483534057
 20
399.1838003925936
 30
0.0
  0
ARC
  5
F63
330
A
100
AcDbEntity
  8
1
  6
Continuous
100
AcDbCircle
 10
1330.094716473357
 20
374.9343319501024
 30
0.0
 40
25.7781087155
100
AcDbArc
 50
70.16945679559999
 51
109.8305432043999
  0
LINE
  5
F64
330
A
100
AcDbEntity
  8
1
  6
Continuous
100
AcDbLine
 10
1349.049753870858
 20
391.1838003926025
 30
0.0
 11
1348.400779638357
 21
399.1838003926025
 31
0.0
  0
ARC
  5
F65
330
A
100
AcDbEntity
  8
1
  6
Continuous
100
AcDbCircle
 10
-6351.017415040142
 20
1738.874730995102
 30
0.0
 40
7781.792472533
100
AcDbArc
 50
350.0269374223
 51
350.0867380564999
  0
LINE
  5
F66
330
A
100
AcDbEntity
  8
1
  6
Continuous
100
AcDbLine
 10
1306.010115894357
 20
391.1838003926025
 30
0.0
 11
1307.344483533857
 21
399.1838003926025
 31
0.0
  0
ARC
  5
F67
330
A
100
AcDbEntity
  8
1
  6
Continuous
100
AcDbCircle
 10
-1725.416288652642
 20
207.8952996111025
 30
0.0
 40
3097.2197332395
100
AcDbArc
 50
3.392654614599943
 51
3.540918781499962
  0
LINE
  5
F68
330
A
100
AcDbEntity
  8
1
  6
Continuous
100
AcDbLine
 10
1374.053843463858
 20
391.1838003926025
 30
0.0
 11
1372.651408976858
 21
399.1838003926025
 31
0.0
  0
ARC
  5
F69
330
A
100
AcDbEntity
  8
1
  6
Continuous
100
AcDbCircle
 10
-6262.693573867136
 20
-879.6805033763975
 30
0.0
 40
7748.849511146001
100
AcDbArc
 50
9.439544516699944
 51
9.499514528299931
  0
ARC
  5
F6A
330
A
100
AcDbEntity
  8
1
  6
Continuous
100
AcDbCircle
 10
-1762.000987209141
 20
646.7031879881021
 30
0.0
 40
3110.703877485499
100
AcDbArc
 50
355.2883022972
 51
355.4361376758997
  0
LINE
  5
F6B
330
A
100
AcDbEntity
  8
1
  6
Continuous
100
AcDbLine
 10
1320.865119077357
 20
391.1838003926025
 30
0.0
 11
1321.349765403357
 21
399.1838003926025
 31
0.0
  0
LINE
  5
F6C
330
A
100
AcDbEntity
  8
1
  6
Continuous
100
AcDbLine
 10
1381.230331287358
 20
391.1838003926025
 30
0.0
 11
1381.620223590857
 21
391.1838003926025
 31
0.0
  0
LINE
  5
F6D
330
A
100
AcDbEntity
  8
1
  6
Continuous
100
AcDbLine
 10
1315.608867118357
 20
403.1838003926025
 30
0.0
 11
1371.631580063358
 21
403.1838003926025
 31
0.0
  0
LINE
  5
F6E
330
A
100
AcDbEntity
  8
1
  6
Continuous
100
AcDbLine
 10
1331.620223590857
 20
386.1838003926025
 30
0.0
 11
1355.620223590857
 21
386.1838003926025
 31
0.0
  0
SPLINE
  5
F6F
330
A
100
AcDbEntity
  8
1
  6
Continuous
100
AcDbSpline
210
0.0
220
0.0
230
1.0
 70
     8
 71
     3
 72
    14
 73
    10
 74
     0
 42
0.0000000001
 43
0.0000000001
 40
0.0
 40
0.0
 40
0.0
 40
0.0
 40
0.25
 40
0.25
 40
0.5
 40
0.5
 40
0.75
 40
0.75
 40
1.0
 40
1.0
 40
1.0
 40
1.0
 10
1599.895963647717
 20
399.1838003925936
 30
0.0
 10
1598.738302451892
 20
399.6519865617903
 30
0.0
 10
1597.692153236527
 20
400.0327100764397
 30
0.0
 10
1595.836930590215
 20
400.5637738547478
 30
0.0
 10
1595.032339056552
 20
400.7079819491292
 30
0.0
 10
1593.777524857434
 20
400.7081205386256
 30
0.0
 10
1593.308128729547
 20
400.5645214376485
 30
0.0
 10
1592.727841917557
 20
400.0330828145276
 30
0.0
 10
1592.610575722463
 20
399.6520393470114
 30
0.0
 10
1592.651408976611
 20
399.1838003925936
 30
0.0
  0
ARC
  5
F70
330
A
100
AcDbEntity
  8
1
  6
Continuous
100
AcDbCircle
 10
1577.145730708358
 20
374.9349160331024
 30
0.0
 40
25.7775592695
100
AcDbArc
 50
70.16901638120001
 51
109.8309836187999
  0
SPLINE
  5
F71
330
A
100
AcDbEntity
  8
1
  6
Continuous
100
AcDbSpline
210
0.0
220
0.0
230
1.0
 70
     8
 71
     3
 72
    14
 73
    10
 74
     0
 42
0.0000000001
 43
0.0000000001
 40
0.0
 40
0.0
 40
0.0
 40
0.0
 40
0.25
 40
0.25
 40
0.5
 40
0.5
 40
0.75
 40
0.75
 40
1.0
 40
1.0
 40
1.0
 40
1.0
 10
1534.589038205162
 20
399.1838003925936
 30
0.0
 10
1534.629866856123
 20
399.6519865617903
 30
0.0
 10
1534.512587776941
 20
400.0327100764397
 30
0.0
 10
1533.933558342079
 20
400.5637738547481
 30
0.0
 10
1533.46370324751
 20
400.7079819491292
 30
0.0
 10
1532.209214101788
 20
400.7081205386256
 30
0.0
 10
1531.406532028984
 20
400.5645214376486
 30
0.0
 10
1529.549193096641
 20
400.0330828145277
 30
0.0
 10
1528.502275249334
 20
399.6520393470114
 30
0.0
 10
1527.344483534057
 20
399.1838003925936
 30
0.0
  0
ARC
  5
F72
330
A
100
AcDbEntity
  8
1
  6
Continuous
100
AcDbCircle
 10
1550.094716473357
 20
374.9343319501024
 30
0.0
 40
25.7781087155
100
AcDbArc
 50
70.16945679559999
 51
109.8305432043999
  0
LINE
  5
F73
330
A
100
AcDbEntity
  8
1
  6
Continuous
100
AcDbLine
 10
1569.049753870858
 20
391.1838003926025
 30
0.0
 11
1568.400779638357
 21
399.1838003926025
 31
0.0
  0
ARC
  5
F74
330
A
100
AcDbEntity
  8
1
  6
Continuous
100
AcDbCircle
 10
-6131.017415113642
 20
1738.874731008102
 30
0.0
 40
7781.792472608
100
AcDbArc
 50
350.0269374223
 51
350.0867380564999
  0
LINE
  5
F75
330
A
100
AcDbEntity
  8
1
  6
Continuous
100
AcDbLine
 10
1526.010115894357
 20
391.1838003926025
 30
0.0
 11
1527.344483533857
 21
399.1838003926025
 31
0.0
  0
ARC
  5
F76
330
A
100
AcDbEntity
  8
1
  6
Continuous
100
AcDbCircle
 10
-1505.416288646642
 20
207.8952996111025
 30
0.0
 40
3097.2197332335
100
AcDbArc
 50
3.392654614599943
 51
3.540918781499962
  0
LINE
  5
F77
330
A
100
AcDbEntity
  8
1
  6
Continuous
100
AcDbLine
 10
1594.053843463858
 20
391.1838003926025
 30
0.0
 11
1592.651408976857
 21
399.1838003926025
 31
0.0
  0
ARC
  5
F78
330
A
100
AcDbEntity
  8
1
  6
Continuous
100
AcDbCircle
 10
-6042.693573904141
 20
-879.680503382397
 30
0.0
 40
7748.8495111835
100
AcDbArc
 50
9.439544516699944
 51
9.499514528299931
  0
ARC
  5
F79
330
A
100
AcDbEntity
  8
1
  6
Continuous
100
AcDbCircle
 10
-1542.000987209142
 20
646.7031879881021
 30
0.0
 40
3110.703877485499
100
AcDbArc
 50
355.2883022972
 51
355.4361376758997
  0
LINE
  5
F7A
330
A
100
AcDbEntity
  8
1
  6
Continuous
100
AcDbLine
 10
1540.865119077357
 20
391.1838003926025
 30
0.0
 11
1541.349765403357
 21
399.1838003926025
 31
0.0
  0
LINE
  5
F7B
330
A
100
AcDbEntity
  8
1
  6
Continuous
100
AcDbLine
 10
1601.230331287358
 20
391.1838003926025
 30
0.0
 11
1601.620223590857
 21
391.1838003926025
 31
0.0
  0
LINE
  5
F7C
330
A
100
AcDbEntity
  8
1
  6
Continuous
100
AcDbLine
 10
1535.608867118357
 20
403.1838003926025
 30
0.0
 11
1591.631580063357
 21
403.1838003926025
 31
0.0
  0
LINE
  5
F7D
330
A
100
AcDbEntity
  8
1
  6
Continuous
100
AcDbLine
 10
1551.620223590857
 20
386.1838003926025
 30
0.0
 11
1575.620223590858
 21
386.1838003926025
 31
0.0
  0
LINE
  5
F7E
330
A
100
AcDbEntity
  8
1
  6
Continuous
100
AcDbLine
 10
1601.620223590857
 20
391.1838003926025
 30
0.0
 11
1600.209607745358
 21
399.1838003926025
 31
0.0
  0
LINE
  5
F7F
330
A
100
AcDbEntity
  8
1
  6
Continuous
100
AcDbLine
 10
1577.620223590857
 20
388.1838003926024
 30
0.0
 11
1577.620223590857
 21
391.1838003926025
 31
0.0
  0
LINE
  5
F80
330
A
100
AcDbEntity
  8
1
  6
Continuous
100
AcDbLine
 10
1592.651408976857
 20
399.1838003926025
 30
0.0
 11
1585.890681778858
 21
399.1838003926025
 31
0.0
  0
LINE
  5
F81
330
A
100
AcDbEntity
  8
1
  6
Continuous
100
AcDbLine
 10
1568.400779638357
 20
399.1838003926025
 30
0.0
 11
1558.839667543358
 21
399.1838003926025
 31
0.0
  0
LINE
  5
F82
330
A
100
AcDbEntity
  8
1
  6
Continuous
100
AcDbLine
 10
1527.030839436357
 20
399.1838003926025
 30
0.0
 11
1527.344483533857
 21
399.1838003926025
 31
0.0
  0
LINE
  5
F83
330
A
100
AcDbEntity
  8
1
  6
Continuous
100
AcDbLine
 10
1600.209607745358
 20
399.1838003926025
 30
0.0
 11
1599.895963647857
 21
399.1838003926025
 31
0.0
  0
LINE
  5
F84
330
A
100
AcDbEntity
  8
1
  6
Continuous
100
AcDbLine
 10
1541.349765403357
 20
399.1838003926025
 30
0.0
 11
1534.589038205357
 21
399.1838003926025
 31
0.0
  0
LINE
  5
F85
330
A
100
AcDbEntity
  8
1
  6
Continuous
100
AcDbLine
 10
1558.190693310858
 20
391.1838003926025
 30
0.0
 11
1540.865119077357
 21
391.1838003926025
 31
0.0
  0
LINE
  5
F86
330
A
100
AcDbEntity
  8
1
  6
Continuous
100
AcDbLine
 10
1533.186603717857
 20
391.1838003926025
 30
0.0
 11
1526.010115894357
 21
391.1838003926025
 31
0.0
  0
LINE
  5
F87
330
A
100
AcDbEntity
  8
1
  6
Continuous
100
AcDbLine
 10
1586.375328104358
 20
391.1838003926025
 30
0.0
 11
1569.049753870858
 21
391.1838003926025
 31
0.0
  0
LINE
  5
F88
330
A
100
AcDbEntity
  8
1
  6
Continuous
100
AcDbLine
 10
1601.230331287358
 20
391.1838003926025
 30
0.0
 11
1594.053843463858
 21
391.1838003926025
 31
0.0
  0
LINE
  5
F89
330
A
100
AcDbEntity
  8
1
  6
Continuous
100
AcDbLine
 10
1586.375328104358
 20
391.1838003926025
 30
0.0
 11
1594.053843463858
 21
391.1838003926025
 31
0.0
  0
LINE
  5
F8A
330
A
100
AcDbEntity
  8
1
  6
Continuous
100
AcDbLine
 10
1558.190693310858
 20
391.1838003926025
 30
0.0
 11
1569.049753870858
 21
391.1838003926025
 31
0.0
  0
LINE
  5
F8B
330
A
100
AcDbEntity
  8
1
  6
Continuous
100
AcDbLine
 10
1533.186603717857
 20
391.1838003926025
 30
0.0
 11
1540.865119077357
 21
391.1838003926025
 31
0.0
  0
LINE
  5
F8C
330
A
100
AcDbEntity
  8
1
  6
Continuous
100
AcDbLine
 10
1526.010115894357
 20
391.1838003926025
 30
0.0
 11
1525.620223590857
 21
391.1838003926025
 31
0.0
  0
LINE
  5
F8E
330
A
100
AcDbEntity
  8
1
  6
Continuous
100
AcDbLine
 10
1574.620223590857
 20
407.1838003926025
 30
0.0
 11
1552.620223590857
 21
407.1838003926025
 31
0.0
  0
LINE
  5
F8F
330
A
100
AcDbEntity
  8
1
  6
Continuous
100
AcDbLine
 10
1552.620223590857
 20
407.1838003926025
 30
0.0
 11
1549.620223590858
 21
403.1838003926025
 31
0.0
  0
ARC
  5
F90
330
A
100
AcDbEntity
  8
1
  6
Continuous
100
AcDbCircle
 10
1551.620223590857
 20
388.1838003926024
 30
0.0
 40
2.0
100
AcDbArc
 50
180.0
 51
270.0
  0
LINE
  5
F91
330
A
100
AcDbEntity
  8
1
  6
Continuous
100
AcDbLine
 10
1535.608867118357
 20
403.1838003926025
 30
0.0
 11
1527.030839436357
 21
399.1838003926025
 31
0.0
  0
LINE
  5
F92
330
A
100
AcDbEntity
  8
1
  6
Continuous
100
AcDbLine
 10
1549.620223590858
 20
391.1838003926025
 30
0.0
 11
1549.620223590858
 21
388.1838003926024
 31
0.0
  0
LINE
  5
F93
330
A
100
AcDbEntity
  8
1
  6
Continuous
100
AcDbLine
 10
1577.620223590857
 20
403.1838003926025
 30
0.0
 11
1574.620223590857
 21
407.1838003926025
 31
0.0
  0
ARC
  5
F94
330
A
100
AcDbEntity
  8
1
  6
Continuous
100
AcDbCircle
 10
1575.620223590858
 20
388.1838003926024
 30
0.0
 40
2.0
100
AcDbArc
 50
270.0
 51
0.0
  0
LINE
  5
F95
330
A
100
AcDbEntity
  8
1
  6
Continuous
100
AcDbLine
 10
1600.209607745358
 20
399.1838003926025
 30
0.0
 11
1591.631580063357
 21
403.1838003926025
 31
0.0
  0
LINE
  5
F96
330
A
100
AcDbEntity
  8
1
  6
Continuous
100
AcDbLine
 10
1527.030839436357
 20
399.1838003926025
 30
0.0
 11
1525.620223590857
 21
391.1838003926025
 31
0.0
  0
LINE
  5
F97
330
A
100
AcDbEntity
  8
1
  6
Continuous
100
AcDbLine
 10
1449.620223590858
 20
413.6838003926025
 30
0.0
 11
1449.620223590858
 21
412.1838003926026
 31
0.0
  0
LINE
  5
F98
330
A
100
AcDbEntity
  8
1
  6
Continuous
100
AcDbLine
 10
1457.620223590857
 20
412.1838003926026
 30
0.0
 11
1457.620223590857
 21
413.6838003926025
 31
0.0
  0
LINE
  5
F99
330
A
100
AcDbEntity
  8
1
  6
Continuous
100
AcDbLine
 10
1457.620223590857
 20
412.1838003926026
 30
0.0
 11
1449.620223590858
 21
412.1838003926026
 31
0.0
  0
LINE
  5
F9A
330
A
100
AcDbEntity
  8
1
  6
Continuous
100
AcDbLine
 10
1450.385223590857
 20
413.6838003926025
 30
0.0
 11
1450.385223590857
 21
412.1838003926026
 31
0.0
  0
LINE
  5
F9B
330
A
100
AcDbEntity
  8
1
  6
Continuous
100
AcDbLine
 10
1456.855223590858
 20
413.6838003926025
 30
0.0
 11
1456.855223590858
 21
412.1838003926026
 31
0.0
  0
LINE
  5
F9C
330
A
100
AcDbEntity
  8
1
  6
Continuous
100
AcDbLine
 10
1450.385223590857
 20
432.1838003926025
 30
0.0
 11
1449.620223590858
 21
432.1838003926025
 31
0.0
  0
LINE
  5
F9D
330
A
100
AcDbEntity
  8
1
  6
Continuous
100
AcDbLine
 10
1456.855223590858
 20
432.1838003926025
 30
0.0
 11
1457.620223590857
 21
432.1838003926025
 31
0.0
  0
LINE
  5
F9E
330
A
100
AcDbEntity
  8
1
  6
Continuous
100
AcDbLine
 10
1455.620223590857
 20
414.1838003926024
 30
0.0
 11
1453.620223590857
 21
414.1838003926024
 31
0.0
  0
ARC
  5
F9F
330
A
100
AcDbEntity
  8
1
  6
Continuous
100
AcDbCircle
 10
1453.769571788357
 20
405.7989550506024
 30
0.0
 40
13.38567853
100
AcDbArc
 50
90.63928017770001
 51
99.25339589180001
  0
ARC
  5
FA0
330
A
100
AcDbEntity
  8
1
  6
Continuous
100
AcDbCircle
 10
1453.469429520357
 20
405.7896087826025
 30
0.0
 40
13.39504041599999
100
AcDbArc
 50
80.74882379820001
 51
89.35498169180002
  0
ARC
  5
FA1
330
A
100
AcDbEntity
  8
1
  6
Continuous
100
AcDbCircle
 10
1453.469429520357
 20
427.5779920026024
 30
0.0
 40
13.39504041599999
100
AcDbArc
 50
270.6450183082
 51
279.2511762017998
  0
ARC
  5
FA2
330
A
100
AcDbEntity
  8
1
  6
Continuous
100
AcDbCircle
 10
1453.769571788357
 20
427.5686457346025
 30
0.0
 40
13.38567853
100
AcDbArc
 50
260.7466041082
 51
269.3607198222999
  0
LINE
  5
FA3
330
A
100
AcDbEntity
  8
1
  6
Continuous
100
AcDbLine
 10
1453.620223590857
 20
414.1838003926024
 30
0.0
 11
1451.620223590857
 21
414.1838003926024
 31
0.0
  0
LINE
  5
FA4
330
A
100
AcDbEntity
  8
1
  6
Continuous
100
AcDbLine
 10
1283.620223590858
 20
422.1838003926026
 30
0.0
 11
1303.620223590858
 21
422.1838003926026
 31
0.0
  0
LINE
  5
FA5
330
A
100
AcDbEntity
  8
1
  6
Continuous
100
AcDbLine
 10
1283.620223590858
 20
420.1838003926025
 30
0.0
 11
1283.620223590858
 21
422.1838003926026
 31
0.0
  0
LINE
  5
FA6
330
A
100
AcDbEntity
  8
1
  6
Continuous
100
AcDbLine
 10
1303.620223590858
 20
420.1838003926025
 30
0.0
 11
1283.620223590858
 21
420.1838003926025
 31
0.0
  0
LINE
  5
FA7
330
A
100
AcDbEntity
  8
1
  6
Continuous
100
AcDbLine
 10
1321.620223590857
 20
437.1838003926026
 30
0.0
 11
1321.620223590857
 21
422.1838003926026
 31
0.0
  0
LINE
  5
FA8
330
A
100
AcDbEntity
  8
1
  6
Continuous
100
AcDbLine
 10
1321.620223590857
 20
422.1838003926026
 30
0.0
 11
1303.620223590858
 21
422.1838003926026
 31
0.0
  0
LINE
  5
FA9
330
A
100
AcDbEntity
  8
1
  6
Continuous
100
AcDbLine
 10
1303.620223590858
 20
420.1838003926025
 30
0.0
 11
1320.620223590857
 21
420.1838003926025
 31
0.0
  0
ARC
  5
FAA
330
A
100
AcDbEntity
  8
1
  6
Continuous
100
AcDbCircle
 10
1320.620223590857
 20
423.1838003926025
 30
0.0
 40
3.0
100
AcDbArc
 50
270.0
 51
0.0
  0
LINE
  5
FAB
330
A
100
AcDbEntity
  8
1
  6
Continuous
100
AcDbLine
 10
1321.620223590857
 20
442.1838003926025
 30
0.0
 11
1323.620223590857
 21
442.1838003926025
 31
0.0
  0
LINE
  5
FAC
330
A
100
AcDbEntity
  8
1
  6
Continuous
100
AcDbLine
 10
1321.620223590857
 20
437.1838003926026
 30
0.0
 11
1321.620223590857
 21
442.1838003926025
 31
0.0
  0
LINE
  5
FAE
330
A
100
AcDbEntity
  8
1
  6
Continuous
100
AcDbLine
 10
1303.620223590858
 20
422.1838003926026
 30
0.0
 11
1303.620223590858
 21
420.1838003926025
 31
0.0
  0
LINE
  5
FAF
330
A
100
AcDbEntity
  8
1
  6
Continuous
100
AcDbLine
 10
1287.120223590858
 20
422.6838003926024
 30
0.0
 11
1287.120223590858
 21
422.1838003926026
 31
0.0
  0
LINE
  5
FB0
330
A
100
AcDbEntity
  8
1
  6
Continuous
100
AcDbLine
 10
1287.620223590857
 20
423.1838003926025
 30
0.0
 11
1287.120223590858
 21
422.6838003926024
 31
0.0
  0
LINE
  5
FB1
330
A
100
AcDbEntity
  8
1
  6
Continuous
100
AcDbLine
 10
1288.720223590857
 20
420.1838003926025
 30
0.0
 11
1288.720223590857
 21
415.6838003926025
 31
0.0
  0
LINE
  5
FB2
330
A
100
AcDbEntity
  8
1
  6
Continuous
100
AcDbLine
 10
1304.120223590857
 20
422.1838003926026
 30
0.0
 11
1304.120223590857
 21
422.6838003926024
 31
0.0
  0
LINE
  5
FB3
330
A
100
AcDbEntity
  8
1
  6
Continuous
100
AcDbLine
 10
1303.620223590858
 20
423.1838003926025
 30
0.0
 11
1287.620223590857
 21
423.1838003926025
 31
0.0
  0
LINE
  5
FB4
330
A
100
AcDbEntity
  8
1
  6
Continuous
100
AcDbLine
 10
1304.120223590857
 20
422.6838003926024
 30
0.0
 11
1303.620223590858
 21
423.1838003926025
 31
0.0
  0
LINE
  5
FB5
330
A
100
AcDbEntity
  8
1
  6
Continuous
100
AcDbLine
 10
1288.720223590857
 20
415.6838003926025
 30
0.0
 11
1302.520223590857
 21
415.6838003926025
 31
0.0
  0
LINE
  5
FB6
330
A
100
AcDbEntity
  8
1
  6
Continuous
100
AcDbLine
 10
1302.520223590857
 20
415.6838003926025
 30
0.0
 11
1302.520223590857
 21
420.1838003926025
 31
0.0
  0
LINE
  5
FB7
330
A
100
AcDbEntity
  8
1
  6
Continuous
100
AcDbLine
 10
1287.120223590858
 20
422.6838003926024
 30
0.0
 11
1304.120223590857
 21
422.6838003926024
 31
0.0
  0
LINE
  5
FB8
330
A
100
AcDbEntity
  8
1
  6
Continuous
100
AcDbLine
 10
1320.820223590858
 20
435.1838003926025
 30
0.0
 11
1320.820223590858
 21
427.1838003926025
 31
0.0
  0
LINE
  5
FB9
330
A
100
AcDbEntity
  8
1
  6
Continuous
100
AcDbLine
 10
1319.820223590857
 20
434.9838003926025
 30
0.0
 11
1319.820223590857
 21
427.3838003926025
 31
0.0
  0
LINE
  5
FBA
330
A
100
AcDbEntity
  8
1
  6
Continuous
100
AcDbLine
 10
1318.700808400857
 20
427.7817365316024
 30
0.0
 11
1318.700808400857
 21
434.5858642536024
 31
0.0
  0
LINE
  5
FBB
330
A
100
AcDbEntity
  8
1
  6
Continuous
100
AcDbLine
 10
1317.563728198857
 20
433.6465402346026
 30
0.0
 11
1317.563728198857
 21
428.721060550602
 31
0.0
  0
LINE
  5
FBC
330
A
100
AcDbEntity
  8
1
  6
Continuous
100
AcDbLine
 10
1317.434557115857
 20
429.3157969876025
 30
0.0
 11
1317.416877250358
 21
429.312679550102
 31
0.0
  0
ELLIPSE
  5
FBD
330
A
100
AcDbEntity
  8
1
  6
Continuous
100
AcDbEllipse
 10
1326.052437634358
 20
431.1838003926025
 30
0.0
 11
-0.0000000037202185
 21
-8.947981822179301
 31
0.0
210
0.0
220
0.0
230
1.0
 40
0.9848077529999999
 41
4.824379976438999
 42
4.922698428330456
  0
SPLINE
  5
FBE
330
A
100
AcDbEntity
  8
1
  6
Continuous
100
AcDbSpline
210
0.0
220
0.0
230
1.0
 70
     8
 71
     3
 72
    10
 73
     6
 74
     0
 42
0.0000000001
 43
0.0000000001
 40
0.0
 40
0.0
 40
0.0
 40
0.0
 40
0.5
 40
0.5
 40
1.0
 40
1.0
 40
1.0
 40
1.0
 10
1317.295598270159
 20
430.591294793786
 30
0.0
 10
1317.283790982745
 20
430.589212850446
 30
0.0
 10
1317.277080148768
 20
430.5447134271879
 30
0.0
 10
1317.277067344858
 20
430.3947746249335
 30
0.0
 10
1317.283790397037
 20
430.2904148603129
 30
0.0
 10
1317.295598270159
 20
430.1838003925936
 30
0.0
  0
ELLIPSE
  5
FBF
330
A
100
AcDbEntity
  8
1
  6
Continuous
100
AcDbEllipse
 10
1326.052437633857
 20
431.1838003926025
 30
0.0
 11
-0.0000000006795675
 21
8.947981821826845
 31
0.0
210
0.0
220
0.0
230
1.0
 40
0.9848077529999999
 41
1.368251607037274
 42
1.458805331083226
  0
ARC
  5
FC0
330
A
100
AcDbEntity
  8
1
  6
Continuous
100
AcDbCircle
 10
1326.549602991357
 20
431.1838003926025
 30
0.0
 40
9.132726272999999
100
AcDbArc
 50
176.4342284708999
 51
183.5657715291
  0
LINE
  5
FC1
330
A
100
AcDbEntity
  8
1
  6
Continuous
100
AcDbLine
 10
1317.295598270358
 20
431.776305991602
 30
0.0
 11
1317.434557115857
 21
431.7518037976025
 31
0.0
  0
SPLINE
  5
FC2
330
A
100
AcDbEntity
  8
1
  6
Continuous
100
AcDbSpline
210
0.0
220
0.0
230
1.0
 70
     8
 71
     3
 72
    10
 73
     6
 74
     0
 42
0.0000000001
 43
0.0000000001
 40
0.0
 40
0.0
 40
0.0
 40
0.0
 40
0.5
 40
0.5
 40
1.0
 40
1.0
 40
1.0
 40
1.0
 10
1317.295598270159
 20
432.1838003925935
 30
0.0
 10
1317.283790982745
 20
432.0771912132789
 30
0.0
 10
1317.277080148768
 20
431.9731055084715
 30
0.0
 10
1317.277067344858
 20
431.823053111532
 30
0.0
 10
1317.283790397037
 20
431.7783880380164
 30
0.0
 10
1317.295598270159
 20
431.7763059914005
 30
0.0
  0
LINE
  5
FC3
330
A
100
AcDbEntity
  8
1
  6
Continuous
100
AcDbLine
 10
1317.434557115857
 20
430.6157969876021
 30
0.0
 11
1317.295598270358
 21
430.5912947936024
 31
0.0
  0
LINE
  5
FC4
330
A
100
AcDbEntity
  8
1
  6
Continuous
100
AcDbLine
 10
1317.420532866858
 20
432.9838003926025
 30
0.0
 11
1317.402060516858
 21
432.9838003926025
 31
0.0
  0
ARC
  5
FC5
330
A
100
AcDbEntity
  8
1
  6
Continuous
100
AcDbCircle
 10
1318.814110866857
 20
429.076789639102
 30
0.0
 40
1.3
100
AcDbArc
 50
195.8808500083001
 51
265.0
  0
LINE
  5
FC6
330
A
100
AcDbEntity
  8
1
  6
Continuous
100
AcDbLine
 10
1320.820223590858
 20
434.9838003926025
 30
0.0
 11
1319.820223590857
 21
434.9838003926025
 31
0.0
  0
LINE
  5
FC7
330
A
100
AcDbEntity
  8
1
  6
Continuous
100
AcDbLine
 10
1321.620223590857
 20
435.1838003926025
 30
0.0
 11
1320.820223590858
 21
435.1838003926025
 31
0.0
  0
LINE
  5
FC8
330
A
100
AcDbEntity
  8
1
  6
Continuous
100
AcDbLine
 10
1318.700808400857
 20
427.7817365316024
 30
0.0
 11
1319.820223590857
 21
427.6838003926025
 31
0.0
  0
ARC
  5
FC9
330
A
100
AcDbEntity
  8
1
  6
Continuous
100
AcDbCircle
 10
1326.220223590858
 20
431.1838003926025
 30
0.0
 40
9.0
100
AcDbArc
 50
164.1191499917
 51
168.4630409671999
  0
ARC
  5
FCA
330
A
100
AcDbEntity
  8
1
  6
Continuous
100
AcDbCircle
 10
1318.814110866857
 20
433.2908111461025
 30
0.0
 40
1.3
100
AcDbArc
 50
95.0
 51
164.1191499917
  0
LINE
  5
FCB
330
A
100
AcDbEntity
  8
1
  6
Continuous
100
AcDbLine
 10
1319.820223590857
 20
427.3838003926025
 30
0.0
 11
1320.820223590858
 21
427.3838003926025
 31
0.0
  0
LINE
  5
FCC
330
A
100
AcDbEntity
  8
1
  6
Continuous
100
AcDbLine
 10
1320.820223590858
 20
427.1838003926025
 30
0.0
 11
1321.620223590857
 21
427.1838003926025
 31
0.0
  0
LINE
  5
FCD
330
A
100
AcDbEntity
  8
1
  6
Continuous
100
AcDbLine
 10
1319.820223590857
 20
434.6838003926025
 30
0.0
 11
1318.700808400857
 21
434.5858642536024
 31
0.0
  0
ARC
  5
FCE
330
A
100
AcDbEntity
  8
1
  6
Continuous
100
AcDbCircle
 10
1326.220223590858
 20
431.1838003926025
 30
0.0
 40
9.0
100
AcDbArc
 50
191.9994508527999
 51
195.8808500083001
  0
LINE
  5
FCF
330
A
100
AcDbEntity
  8
1
  6
Continuous
100
AcDbLine
 10
1303.620223590858
 20
443.6838003926025
 30
0.0
 11
1303.620223590858
 21
492.1838003926025
 31
0.0
  0
LINE
  5
FD0
330
A
100
AcDbEntity
  8
1
  6
Continuous
100
AcDbLine
 10
1603.620223590858
 20
492.1838003926025
 30
0.0
 11
1603.620223590858
 21
443.6838003926025
 31
0.0
  0
LINE
  5
FD1
330
A
100
AcDbEntity
  8
1
  6
Continuous
100
AcDbLine
 10
1348.620223590857
 20
503.6838003926026
 30
0.0
 11
1315.120223590857
 21
503.6838003926026
 31
0.0
  0
ARC
  5
FD3
330
A
100
AcDbEntity
  8
1
  6
Continuous
100
AcDbCircle
 10
1315.120223590857
 20
492.1838003926025
 30
0.0
 40
11.49999999999999
100
AcDbArc
 50
90.0
 51
180.0
  0
LINE
  5
FD6
330
A
100
AcDbEntity
  8
1
  6
Continuous
100
AcDbLine
 10
1592.120223590858
 20
503.6838003926026
 30
0.0
 11
1558.620223590858
 21
503.6838003926026
 31
0.0
  0
ARC
  5
FD7
330
A
100
AcDbEntity
  8
1
  6
Continuous
100
AcDbCircle
 10
1592.120223590858
 20
492.1838003926025
 30
0.0
 40
11.49999999999999
100
AcDbArc
 50
0.0
 51
90.0
  0
LINE
  5
FD8
330
A
100
AcDbEntity
  8
1
  6
Continuous
100
AcDbLine
 10
1603.620223590858
 20
443.6838003926025
 30
0.0
 11
1558.620223590858
 21
443.6838003926025
 31
0.0
  0
LINE
  5
FDA
330
A
100
AcDbEntity
  8
1
  6
Continuous
100
AcDbLine
 10
1348.620223590857
 20
503.6838003926026
 30
0.0
 11
1558.620223590858
 21
503.6838003926026
 31
0.0
  0
LINE
  5
FDB
330
A
100
AcDbEntity
  8
1
  6
Continuous
100
AcDbLine
 10
1348.620223590857
 20
443.6838003926025
 30
0.0
 11
1558.620223590858
 21
443.6838003926025
 31
0.0
  0
LINE
  5
FDF
330
A
100
AcDbEntity
  8
1
  6
Continuous
100
AcDbLine
 10
1348.620223590857
 20
443.6838003926025
 30
0.0
 11
1303.620223590858
 21
443.6838003926025
 31
0.0
  0
LINE
  5
FE0
330
A
100
AcDbEntity
  8
1
  6
Continuous
100
AcDbLine
 10
1173.120223590857
 20
412.1838003926026
 30
0.0
 11
1334.382619283857
 21
412.1838003926026
 31
0.0
  0
LINE
  5
FE1
330
A
100
AcDbEntity
  8
1
  6
Continuous
100
AcDbLine
 10
1352.857827897858
 20
412.1838003926026
 30
0.0
 11
1358.120223590858
 21
412.1838003926026
 31
0.0
  0
LINE
  5
FE2
330
A
100
AcDbEntity
  8
1
  6
Continuous
100
AcDbLine
 10
1168.120223590857
 20
412.1838003926026
 30
0.0
 11
1168.120223590857
 21
415.1838003926025
 31
0.0
  0
LINE
  5
FE3
330
A
100
AcDbEntity
  8
1
  6
Continuous
100
AcDbLine
 10
1173.120223590857
 20
412.1838003926026
 30
0.0
 11
1168.120223590857
 21
412.1838003926026
 31
0.0
  0
LINE
  5
FE4
330
A
100
AcDbEntity
  8
1
  6
Continuous
100
AcDbLine
 10
1268.155858831357
 20
415.1838003926025
 30
0.0
 11
1326.620223590857
 21
415.1838003926025
 31
0.0
  0
ARC
  5
FE6
330
A
100
AcDbEntity
  8
1
  6
Continuous
100
AcDbCircle
 10
1358.120223590858
 20
415.1858003926025
 30
0.0
 40
3.002
100
AcDbArc
 50
270.0
 51
359.9618282587
  0
LINE
  5
FE7
330
A
100
AcDbEntity
  8
1
  6
Continuous
100
AcDbLine
 10
1353.718583716358
 20
408.1505486981024
 30
0.0
 11
1352.857827897858
 21
408.1505486981024
 31
0.0
  0
ARC
  5
FE8
330
A
100
AcDbEntity
  8
1
  6
Continuous
100
AcDbCircle
 10
1351.825813790358
 20
408.3161446096025
 30
0.0
 40
1.9
100
AcDbArc
 50
323.4181421716998
 51
355.0
  0
LINE
  5
FE9
330
A
100
AcDbEntity
  8
1
  6
Continuous
100
AcDbLine
 10
1354.870223590857
 20
411.3838003926025
 30
0.0
 11
1354.870223590857
 21
412.1838003926026
 31
0.0
  0
LINE
  5
FEA
330
A
100
AcDbEntity
  8
1
  6
Continuous
100
AcDbLine
 10
1354.720223590857
 20
409.8838003926024
 30
0.0
 11
1354.720223590857
 21
411.3838003926025
 31
0.0
  0
LINE
  5
FEB
330
A
100
AcDbEntity
  8
1
  6
Continuous
100
AcDbLine
 10
1353.718583716358
 20
408.1505486981024
 30
0.0
 11
1353.870223590857
 21
409.8838003926024
 31
0.0
  0
LINE
  5
FEC
330
A
100
AcDbEntity
  8
1
  6
Continuous
100
AcDbLine
 10
1354.870223590857
 20
411.3838003926025
 30
0.0
 11
1352.857827897858
 21
411.3838003926025
 31
0.0
  0
LINE
  5
FED
330
A
100
AcDbEntity
  8
1
  6
Continuous
100
AcDbLine
 10
1354.720223590857
 20
409.8838003926024
 30
0.0
 11
1352.857827897858
 21
409.8838003926024
 31
0.0
  0
ARC
  5
FEE
330
A
100
AcDbEntity
  8
1
  6
Continuous
100
AcDbCircle
 10
1333.414633391357
 20
408.3161446096025
 30
0.0
 40
1.9
100
AcDbArc
 50
184.9999999999999
 51
234.4534114331998
  0
LINE
  5
FEF
330
A
100
AcDbEntity
  8
1
  6
Continuous
100
AcDbLine
 10
1330.370223590857
 20
412.1838003926026
 30
0.0
 11
1330.370223590857
 21
411.3838003926025
 31
0.0
  0
LINE
  5
FF0
330
A
100
AcDbEntity
  8
1
  6
Continuous
100
AcDbLine
 10
1330.520223590857
 20
411.3838003926025
 30
0.0
 11
1330.520223590857
 21
409.8838003926024
 31
0.0
  0
LINE
  5
FF1
330
A
100
AcDbEntity
  8
1
  6
Continuous
100
AcDbLine
 10
1331.370223590857
 20
409.8838003926024
 30
0.0
 11
1331.521863465358
 21
408.1505486981024
 31
0.0
  0
LINE
  5
FF2
330
A
100
AcDbEntity
  8
1
  6
Continuous
100
AcDbLine
 10
1334.382619283857
 20
411.3838003926025
 30
0.0
 11
1330.370223590857
 21
411.3838003926025
 31
0.0
  0
LINE
  5
FF3
330
A
100
AcDbEntity
  8
1
  6
Continuous
100
AcDbLine
 10
1334.382619283857
 20
409.8838003926024
 30
0.0
 11
1330.520223590857
 21
409.8838003926024
 31
0.0
  0
LINE
  5
FF4
330
A
100
AcDbEntity
  8
1
  6
Continuous
100
AcDbLine
 10
1334.382619283857
 20
408.1505486981024
 30
0.0
 11
1331.521863465358
 21
408.1505486981024
 31
0.0
  0
ARC
  5
FF5
330
A
100
AcDbEntity
  8
1
  6
Continuous
100
AcDbCircle
 10
1190.165181561858
 20
478.3512233486024
 30
0.0
 40
50.0
100
AcDbArc
 50
175.2438164836
 51
182.0
  0
ARC
  5
FF6
330
A
100
AcDbEntity
  8
1
  6
Continuous
100
AcDbCircle
 10
1235.130467997358
 20
482.2851761641025
 30
0.0
 40
50.0
100
AcDbArc
 50
7.99999999999996
 51
14.75188571259998
  0
ARC
  5
FFB
330
A
100
AcDbEntity
  8
1
  6
Continuous
100
AcDbCircle
 10
1280.097714488858
 20
494.125646719102
 30
0.0
 40
3.5
100
AcDbArc
 50
14.75188571259998
 51
86.44137084669999
  0
LINE
  5
FFD
330
A
100
AcDbEntity
  8
1
  6
Continuous
100
AcDbLine
 10
1160.669346877857
 20
489.4394839601026
 30
0.0
 11
1265.753653698358
 21
498.6331695216025
 31
0.0
  0
LINE
  5
FFE
330
A
100
AcDbEntity
  8
1
  6
Continuous
100
AcDbLine
 10
1156.197101045857
 20
489.048213149602
 30
0.0
 11
1152.685555464857
 21
488.7409927196024
 31
0.0
  0
LINE
  5
FFF
330
A
100
AcDbEntity
  8
1
  6
Continuous
100
AcDbLine
 10
1265.753653698358
 20
498.6331695216025
 30
0.0
 11
1270.236529839857
 21
499.0253703641021
 31
0.0
  0
LINE
  5
1000
330
A
100
AcDbEntity
  8
1
  6
Continuous
100
AcDbLine
 10
1156.197101045857
 20
489.048213149602
 30
0.0
 11
1160.669346877857
 21
489.4394839601026
 31
0.0
  0
ARC
  5
1005
330
A
100
AcDbEntity
  8
1
  6
Continuous
100
AcDbCircle
 10
1270.280107711357
 20
498.527273015102
 30
0.0
 40
0.5
100
AcDbArc
 50
4.999999999999957
 51
95.0
  0
LINE
  5
1009
330
A
100
AcDbEntity
  8
1
  6
Continuous
100
AcDbLine
 10
1270.778205060357
 20
498.5708508861019
 30
0.0
 11
1270.865360802857
 21
497.5746561881025
 31
0.0
  0
LINE
  5
100D
330
A
100
AcDbEntity
  8
1
  6
Continuous
100
AcDbLine
 10
1155.425676804358
 20
487.4749925171025
 30
0.0
 11
1269.869166104858
 21
497.487500445602
 31
0.0
  0
LINE
  5
100E
330
A
100
AcDbEntity
  8
1
  6
Continuous
100
AcDbLine
 10
1153.314386428357
 20
487.290278544102
 30
0.0
 11
1155.425676804358
 21
487.4749925171025
 31
0.0
  0
SPLINE
  5
100F
330
A
100
AcDbEntity
  8
1
  6
Continuous
100
AcDbSpline
210
0.0
220
0.0
230
1.0
 70
     8
 71
     3
 72
     8
 73
     4
 74
     0
 42
0.0000000001
 43
0.0000000001
 40
0.5244755893731457
 40
0.5244755893731457
 40
0.5244755893731457
 40
0.5244755893731457
 40
1.0
 40
1.0
 40
1.0
 40
1.0
 10
1143.013575279833
 20
485.6082100459454
 30
0.0
 10
1143.131197012676
 20
485.6393607041255
 30
0.0
 10
1144.388362265043
 20
485.9676307114249
 30
0.0
 10
1146.771489603606
 20
486.4052832985425
 30
0.0
  0
ARC
  5
1010
330
A
100
AcDbEntity
  8
1
  6
Continuous
100
AcDbCircle
 10
1159.415288420357
 20
417.5566496776024
 30
0.0
 40
70.0
100
AcDbArc
 50
95.0
 51
100.4062070204998
  0
LINE
  5
1015
330
A
100
AcDbEntity
  8
1
  6
Continuous
100
AcDbLine
 10
1269.869166104858
 20
497.487500445602
 30
0.0
 11
1271.351932802357
 21
497.6013685021024
 31
0.0
  0
ARC
  5
1019
330
A
100
AcDbEntity
  8
1
  6
Continuous
100
AcDbCircle
 10
1275.970068097358
 20
427.7538715791025
 30
0.0
 40
70.0
100
AcDbArc
 50
86.4419476087
 51
93.78274261239999
  0
LINE
  5
101A
330
A
100
AcDbEntity
  8
1
  6
Continuous
100
AcDbLine
 10
1155.690242041858
 20
477.961850519602
 30
0.0
 11
1272.705918059858
 21
488.1993956261025
 31
0.0
  0
LINE
  5
101B
330
A
100
AcDbEntity
  8
1
  6
Continuous
100
AcDbLine
 10
1143.780931690858
 20
476.9199208736025
 30
0.0
 11
1140.195640210857
 21
476.6062485136025
 31
0.0
  0
LINE
  5
101C
330
A
100
AcDbEntity
  8
1
  6
Continuous
100
AcDbLine
 10
1155.690242041858
 20
477.961850519602
 30
0.0
 11
1143.780931690858
 21
476.9199208736025
 31
0.0
  0
LINE
  5
101F
330
A
100
AcDbEntity
  8
1
  6
Continuous
100
AcDbLine
 10
1284.643871434357
 20
489.2438312121025
 30
0.0
 11
1272.705918059858
 21
488.1993956261025
 31
0.0
  0
LINE
  5
1020
330
A
100
AcDbEntity
  8
1
  6
Continuous
100
AcDbLine
 10
1152.231035987357
 20
488.1993174991019
 30
0.0
 11
1152.318191729857
 21
487.2031228011021
 31
0.0
  0
ARC
  5
1021
330
A
100
AcDbEntity
  8
1
  6
Continuous
100
AcDbCircle
 10
1152.729133336357
 20
488.242895370602
 30
0.0
 40
0.5
100
AcDbArc
 50
95.0
 51
184.9999999999999
  0
ARC
  5
1022
330
A
100
AcDbEntity
  8
1
  6
Continuous
100
AcDbCircle
 10
1143.540938033857
 20
483.2873597356019
 30
0.0
 40
2.379381090999999
100
AcDbArc
 50
104.4663485402
 51
105.0334788444
  0
ARC
  5
1023
330
A
100
AcDbEntity
  8
1
  6
Continuous
100
AcDbCircle
 10
1143.825012450857
 20
482.2033301431025
 30
0.0
 40
3.5
100
AcDbArc
 50
104.9217113874999
 51
175.1984333602999
  0
LINE
  5
1025
330
A
100
AcDbEntity
  8
1
  6
Continuous
100
AcDbLine
 10
1232.007743775857
 20
419.6652984931025
 30
0.0
 11
1199.631416087858
 21
416.8327368541024
 31
0.0
  0
ARC
  5
1026
330
A
100
AcDbEntity
  8
1
  6
Continuous
100
AcDbCircle
 10
1229.853126725858
 20
444.2926840711019
 30
0.0
 40
24.72145819
100
AcDbArc
 50
275.0
 51
95.0
  0
LINE
  5
102D
330
A
100
AcDbEntity
  8
1
  6
Continuous
100
AcDbLine
 10
1212.657297858358
 20
419.3992417706025
 30
0.0
 11
1199.507527843357
 21
418.2487859661025
 31
0.0
  0
LINE
  5
102E
330
A
100
AcDbEntity
  8
1
  6
Continuous
100
AcDbLine
 10
1271.655858831358
 20
477.0655091346025
 30
0.0
 11
1157.286171813358
 21
467.0594580696024
 31
0.0
  0
SPLINE
  5
1031
330
A
100
AcDbEntity
  8
1
  6
Continuous
100
AcDbSpline
210
0.0
220
0.0
230
1.0
 70
     8
 71
     3
 72
     8
 73
     4
 74
     0
 42
0.0000000001
 43
0.0000000001
 40
0.0
 40
0.0
 40
0.0
 40
0.0
 40
0.475867128573369
 40
0.475867128573369
 40
0.475867128573369
 40
0.475867128573369
 10
1148.518843553792
 20
466.698630206435
 30
0.0
 10
1146.085077888433
 20
466.7504277302184
 30
0.0
 10
1144.78387001251
 20
466.874976640514
 30
0.0
 10
1144.66419158017
 20
466.8868589664803
 30
0.0
  0
ARC
  5
1033
330
A
100
AcDbEntity
  8
1
  6
Continuous
100
AcDbCircle
 10
1234.761485825857
 20
486.5026616786019
 30
0.0
 40
50.0
100
AcDbArc
 50
354.8014139513
 51
2.000000000000066
  0
ARC
  5
1034
330
A
100
AcDbEntity
  8
1
  6
Continuous
100
AcDbCircle
 10
1150.008307316358
 20
536.682781967102
 30
0.0
 40
70.0
100
AcDbArc
 50
268.7807653094
 51
274.1708319583
  0
LINE
  5
1035
330
A
100
AcDbEntity
  8
1
  6
Continuous
100
AcDbLine
 10
1155.101079154357
 20
466.8682872331025
 30
0.0
 11
1155.099440666857
 21
466.868167729102
 31
0.0
  0
ARC
  5
1036
330
A
100
AcDbEntity
  8
1
  6
Continuous
100
AcDbCircle
 10
1272.655858831357
 20
476.1682039416024
 30
0.0
 40
1.0
100
AcDbArc
 50
96.55975398599998
 51
180.0
  0
LINE
  5
1038
330
A
100
AcDbEntity
  8
1
  6
Continuous
100
AcDbLine
 10
1163.649219253357
 20
418.0797733271025
 30
0.0
 11
1155.256110600858
 21
465.9834451741019
 31
0.0
  0
LINE
  5
1039
330
A
100
AcDbEntity
  8
1
  6
Continuous
100
AcDbLine
 10
1271.655858831358
 20
476.1682039416024
 30
0.0
 11
1271.655858831358
 21
455.3958939636025
 31
0.0
  0
ARC
  5
103B
330
A
100
AcDbEntity
  8
1
  6
Continuous
100
AcDbCircle
 10
1167.096704032857
 20
418.6838003926026
 30
0.0
 40
3.5
100
AcDbArc
 50
189.9378109462999
 51
270.0
  0
LINE
  5
103D
330
A
100
AcDbEntity
  8
1
  6
Continuous
100
AcDbLine
 10
1259.411895103857
 20
415.1838003926025
 30
0.0
 11
1175.964763898357
 21
415.1838003926025
 31
0.0
  0
ARC
  5
103F
330
A
100
AcDbEntity
  8
1
  6
Continuous
100
AcDbCircle
 10
1154.271114949857
 20
465.8108660126025
 30
0.0
 40
1.0
100
AcDbArc
 50
9.937810946299954
 51
93.44208257129999
  0
LINE
  5
1047
330
A
100
AcDbEntity
  8
1
  6
Continuous
100
AcDbLine
 10
1283.934071418358
 20
488.1779119196024
 30
0.0
 11
1283.846915675858
 21
489.1741066176025
 31
0.0
  0
LINE
  5
1048
330
A
100
AcDbEntity
  8
1
  6
Continuous
100
AcDbLine
 10
1174.898905055357
 20
412.6838003926025
 30
0.0
 11
1190.960022455857
 21
412.6838003926025
 31
0.0
  0
LINE
  5
1049
330
A
100
AcDbEntity
  8
1
  6
Continuous
100
AcDbLine
 10
1236.131915145358
 20
412.6838003926025
 30
0.0
 11
1252.193032545858
 21
412.6838003926025
 31
0.0
  0
LINE
  5
104B
330
A
100
AcDbEntity
  8
1
  6
Continuous
100
AcDbLine
 10
1217.419491808857
 20
419.8158797546025
 30
0.0
 11
1217.239793469357
 21
419.8001581871024
 31
0.0
  0
ARC
  5
1053
330
A
100
AcDbEntity
  8
1
  6
Continuous
100
AcDbCircle
 10
1272.655858831357
 20
475.905570152602
 30
0.0
 40
1.0
100
AcDbArc
 50
180.0
 51
274.5
  0
LINE
  5
1054
330
A
100
AcDbEntity
  8
1
  6
Continuous
100
AcDbLine
 10
1195.446070231357
 20
464.6714588976025
 30
0.0
 11
1208.595840245858
 21
465.8219147016025
 31
0.0
  0
LINE
  5
1056
330
A
100
AcDbEntity
  8
1
  6
Continuous
100
AcDbLine
 10
1231.883855531857
 20
421.0813476056025
 30
0.0
 11
1218.454767707358
 21
419.9064546596025
 31
0.0
  0
ARC
  5
1057
330
A
100
AcDbEntity
  8
1
  6
Continuous
100
AcDbCircle
 10
1197.476799037357
 20
441.460122431602
 30
0.0
 40
23.3
100
AcDbArc
 50
95.0
 51
275.0
  0
LINE
  5
1058
330
A
100
AcDbEntity
  8
1
  6
Continuous
100
AcDbLine
 10
1214.393310095358
 20
466.3291275906019
 30
0.0
 11
1227.822397919858
 21
467.504020536602
 31
0.0
  0
ARC
  5
105C
330
A
100
AcDbEntity
  8
1
  6
Continuous
100
AcDbCircle
 10
1144.922766217858
 20
470.377523716102
 30
0.0
 40
3.5
100
AcDbArc
 50
195.2614473406
 51
264.2483256425999
  0
LINE
  5
105D
330
A
100
AcDbEntity
  8
1
  6
Continuous
100
AcDbLine
 10
1174.680183396358
 20
415.1838003926025
 30
0.0
 11
1174.898905055357
 21
412.6838003926025
 31
0.0
  0
LINE
  5
105E
330
A
100
AcDbEntity
  8
1
  6
Continuous
100
AcDbLine
 10
1235.913193486357
 20
415.1838003926025
 30
0.0
 11
1236.131915145358
 21
412.6838003926025
 31
0.0
  0
ARC
  5
105F
330
A
100
AcDbEntity
  8
1
  6
Continuous
100
AcDbCircle
 10
1189.796199390857
 20
482.5687088636025
 30
0.0
 40
50.0
100
AcDbArc
 50
187.9999999999999
 51
195.2036765972
  0
LINE
  5
1060
330
A
100
AcDbEntity
  8
1
  6
Continuous
100
AcDbLine
 10
1144.572006236357
 20
466.8951441501025
 30
0.0
 11
1144.594658042358
 21
466.892918198102
 31
0.0
  0
LINE
  5
1061
330
A
100
AcDbEntity
  8
1
  6
Continuous
100
AcDbLine
 10
1190.960022455857
 20
412.6838003926025
 30
0.0
 11
1190.741300796858
 21
415.1838003926025
 31
0.0
  0
LINE
  5
1062
330
A
100
AcDbEntity
  8
1
  6
Continuous
100
AcDbLine
 10
1252.193032545858
 20
412.6838003926025
 30
0.0
 11
1251.974310887357
 21
415.1838003926025
 31
0.0
  0
ARC
  5
1063
330
A
100
AcDbEntity
  8
1
  6
Continuous
100
AcDbCircle
 10
1144.922766217858
 20
470.3775237166025
 30
0.0
 40
3.5
100
AcDbArc
 50
264.2483256425999
 51
265.6140630761
  0
LINE
  5
1064
330
A
100
AcDbEntity
  8
1
  6
Continuous
100
AcDbLine
 10
1140.992595969357
 20
476.6759731076025
 30
0.0
 11
1141.079751712357
 21
475.6797784096025
 31
0.0
  0
ARC
  5
1070
330
A
100
AcDbEntity
  8
1
  6
Continuous
100
AcDbCircle
 10
1272.655858831357
 20
428.1729896456025
 30
0.0
 40
1.0
100
AcDbArc
 50
95.49999999999997
 51
180.0
  0
ARC
  5
1072
330
A
100
AcDbEntity
  8
1
  6
Continuous
100
AcDbCircle
 10
1197.444523014358
 20
448.459275250102
 30
0.0
 40
32.123288953
100
AcDbArc
 50
248.8314502630999
 51
274.0638544786999
  0
ELLIPSE
  5
1073
330
A
100
AcDbEntity
  8
1
  6
Continuous
100
AcDbEllipse
 10
1233.398992714858
 20
418.6838003926026
 30
0.0
 11
-51.46049016799445
 21
-3.499864265898466
 31
0.0
210
0.0
220
0.0
230
1.0
 40
0.0005989842
 41
4.772705576254606
 42
5.425793781503058
  0
ARC
  5
107C
330
A
100
AcDbEntity
  8
1
  6
Continuous
100
AcDbCircle
 10
1229.853126725858
 20
444.2926840711019
 30
0.0
 40
23.3
100
AcDbArc
 50
275.0
 51
95.0
  0
ARC
  5
1084
330
A
100
AcDbEntity
  8
1
  6
Continuous
100
AcDbCircle
 10
1264.544864847857
 20
546.7033850686025
 30
0.0
 40
70.0
100
AcDbArc
 50
277.0849492398999
 51
279.1568842111999
  0
LINE
  5
1085
330
A
100
AcDbEntity
  8
1
  6
Continuous
100
AcDbLine
 10
1273.107470315357
 20
477.2290604036025
 30
0.0
 11
1271.655858831358
 21
477.0655091346025
 31
0.0
  0
ARC
  5
1086
330
A
100
AcDbEntity
  8
1
  6
Continuous
100
AcDbCircle
 10
1264.544864847857
 20
546.7033850681025
 30
0.0
 40
70.0
100
AcDbArc
 50
277.0261848058999
 51
284.3880953213
  0
LINE
  5
1087
330
A
100
AcDbEntity
  8
1
  6
Continuous
100
AcDbLine
 10
1277.395087283357
 20
468.8343939751025
 30
0.0
 11
1280.236364497358
 21
436.358446817102
 31
0.0
  0
LINE
  5
1088
330
A
100
AcDbEntity
  8
1
  6
Continuous
100
AcDbLine
 10
1276.835420325358
 20
475.2314165776025
 30
0.0
 11
1277.395087283357
 21
468.8343939751025
 31
0.0
  0
LINE
  5
1089
330
A
100
AcDbEntity
  8
1
  6
Continuous
100
AcDbLine
 10
1280.236364497358
 20
436.358446817102
 30
0.0
 11
1280.796031455357
 21
429.9614242141025
 31
0.0
  0
LINE
  5
108A
330
A
100
AcDbEntity
  8
1
  6
Continuous
100
AcDbLine
 10
1272.734317926857
 20
474.9086528191019
 30
0.0
 11
1276.835420325358
 21
475.2314165776025
 31
0.0
  0
LINE
  5
108D
330
A
100
AcDbEntity
  8
1
  6
Continuous
100
AcDbLine
 10
1272.560013078858
 20
429.168385844102
 30
0.0
 11
1280.796031455357
 21
429.9614242141025
 31
0.0
  0
ARC
  5
108F
330
A
100
AcDbEntity
  8
1
  6
Continuous
100
AcDbCircle
 10
1213.901818868858
 20
465.9849817286024
 30
0.0
 40
0.6
100
AcDbArc
 50
35.00000000000004
 51
154.9999999999999
  0
ARC
  5
1090
330
A
100
AcDbEntity
  8
1
  6
Continuous
100
AcDbCircle
 10
1212.683444580857
 20
419.1003833611024
 30
0.0
 40
0.3
100
AcDbArc
 50
4.999999999999957
 51
95.0
  0
LINE
  5
1091
330
A
100
AcDbEntity
  8
1
  6
Continuous
100
AcDbLine
 10
1212.982302990358
 20
419.1265300841025
 30
0.0
 11
1216.967081782857
 21
419.4751530551025
 31
0.0
  0
ARC
  5
1092
330
A
100
AcDbEntity
  8
1
  6
Continuous
100
AcDbCircle
 10
1213.152189134357
 20
466.5216895276019
 30
0.0
 40
0.3
100
AcDbArc
 50
184.9999999999999
 51
275.0
  0
ARC
  5
1093
330
A
100
AcDbEntity
  8
1
  6
Continuous
100
AcDbCircle
 10
1208.569693523358
 20
466.1207731111019
 30
0.0
 40
0.3
100
AcDbArc
 50
275.0
 51
4.999999999999957
  0
LINE
  5
1094
330
A
100
AcDbEntity
  8
1
  6
Continuous
100
AcDbLine
 10
1208.868551932857
 20
466.1469198341025
 30
0.0
 11
1212.853330724857
 21
466.4955428051024
 31
0.0
  0
ARC
  5
1097
330
A
100
AcDbEntity
  8
1
  6
Continuous
100
AcDbCircle
 10
1217.265940192358
 20
419.5012997776024
 30
0.0
 40
0.3
100
AcDbArc
 50
95.0
 51
184.9999999999999
  0
ARC
  5
1098
330
A
100
AcDbEntity
  8
1
  6
Continuous
100
AcDbCircle
 10
1217.910983035358
 20
420.1600256166025
 30
0.0
 40
0.6
100
AcDbArc
 50
215.0
 51
334.9999999999999
  0
LINE
  5
10A3
330
A
100
AcDbEntity
  8
1
  6
Continuous
100
AcDbLine
 10
1213.178335857358
 20
466.2228311181025
 30
0.0
 11
1213.358034196358
 21
466.238552685602
 31
0.0
  0
ARC
  5
10A6
330
A
100
AcDbEntity
  8
1
  6
Continuous
100
AcDbCircle
 10
1199.277849594857
 20
441.6656328491019
 30
0.0
 40
27.4324093375
100
AcDbArc
 50
162.5939404575999
 51
207.8937055101999
  0
LINE
  5
10A7
330
A
100
AcDbEntity
  8
1
  6
Continuous
100
AcDbLine
 10
1232.095596223858
 20
418.6611404191024
 30
0.0
 11
1230.294860291357
 21
418.5035964386025
 31
0.0
  0
ARC
  5
10A8
330
A
100
AcDbEntity
  8
1
  6
Continuous
100
AcDbCircle
 10
1197.473310968858
 20
441.5000139611024
 30
0.0
 40
25.76949622549999
100
AcDbArc
 50
209.4454815274
 51
243.1750124562999
  0
LINE
  5
10A9
330
A
100
AcDbEntity
  8
1
  6
Continuous
100
AcDbLine
 10
1195.227349233857
 20
467.171451337602
 30
0.0
 11
1227.603676922357
 21
470.0040129771024
 31
0.0
  0
ARC
  5
10AA
330
A
100
AcDbEntity
  8
1
  6
Continuous
100
AcDbCircle
 10
1197.473308698857
 20
441.5000171851025
 30
0.0
 40
25.7694939335
100
AcDbArc
 50
95.0
 51
161.0421644570999
  0
ARC
  5
10AB
330
A
100
AcDbEntity
  8
1
  6
Continuous
100
AcDbCircle
 10
1229.849636573357
 20
444.332576698102
 30
0.0
 40
25.769496995
100
AcDbArc
 50
275.0
 51
95.0
  0
LINE
  5
10B1
330
A
100
AcDbEntity
  8
1
  6
Continuous
100
AcDbLine
 10
1195.322181986858
 20
466.0875080096025
 30
0.0
 11
1227.698509675358
 21
468.920069649102
 31
0.0
  0
ARC
  5
10B3
330
A
100
AcDbEntity
  8
1
  6
Continuous
100
AcDbCircle
 10
1197.476799037357
 20
441.460122431602
 30
0.0
 40
24.72145819
100
AcDbArc
 50
95.0
 51
275.0
  0
LINE
  5
10B6
330
A
100
AcDbEntity
  8
1
  6
Continuous
100
AcDbLine
 10
1272.793073802357
 20
487.203200928102
 30
0.0
 11
1155.777397784357
 21
476.9656558216025
 31
0.0
  0
LINE
  5
10B7
330
A
100
AcDbEntity
  8
1
  6
Continuous
100
AcDbLine
 10
1143.868087433858
 20
475.9237261756025
 30
0.0
 11
1140.282795953857
 21
475.6100538156025
 31
0.0
  0
LINE
  5
10B8
330
A
100
AcDbEntity
  8
1
  6
Continuous
100
AcDbLine
 10
1143.868087433858
 20
475.9237261756025
 30
0.0
 11
1155.777397784357
 21
476.9656558216025
 31
0.0
  0
LINE
  5
10BA
330
A
100
AcDbEntity
  8
1
  6
Continuous
100
AcDbLine
 10
1272.793073802357
 20
487.203200928102
 30
0.0
 11
1284.731027176857
 21
488.2476365141025
 31
0.0
  0
LINE
  5
10C2
330
A
100
AcDbEntity
  8
1
  6
Continuous
100
AcDbLine
 10
1157.286171813358
 20
467.0594580696024
 30
0.0
 11
1155.101079154357
 21
466.8682872331025
 31
0.0
  0
ARC
  5
10C4
330
A
100
AcDbEntity
  8
1
  6
Continuous
100
AcDbCircle
 10
1281.070214351357
 20
482.2893895101025
 30
0.0
 40
3.5
100
AcDbArc
 50
284.3888561636
 51
354.8014139513
  0
LINE
  5
10C5
330
A
100
AcDbEntity
  8
1
  6
Continuous
100
AcDbLine
 10
1263.654916061857
 20
452.863239826102
 30
0.0
 11
1263.654916061857
 21
418.6838003926026
 31
0.0
  0
ARC
  5
10CA
330
A
100
AcDbEntity
  8
1
  6
Continuous
100
AcDbCircle
 10
1270.655858831358
 20
455.3958939636025
 30
0.0
 40
1.0
100
AcDbArc
 50
275.0
 51
0.0
  0
LINE
  5
10CB
330
A
100
AcDbEntity
  8
1
  6
Continuous
100
AcDbLine
 10
1260.154916061857
 20
415.1838003926025
 30
0.0
 11
1259.411895103857
 21
415.1838003926025
 31
0.0
  0
LINE
  5
10CC
330
A
100
AcDbEntity
  8
1
  6
Continuous
100
AcDbLine
 10
1175.964763898357
 20
415.1838003926025
 30
0.0
 11
1167.096704032857
 21
415.1838003926025
 31
0.0
  0
ARC
  5
10D0
330
A
100
AcDbEntity
  8
1
  6
Continuous
100
AcDbCircle
 10
1268.155858831357
 20
418.6838003926026
 30
0.0
 40
3.5
100
AcDbArc
 50
270.0
 51
0.0
  0
LINE
  5
10D4
330
A
100
AcDbEntity
  8
1
  6
Continuous
100
AcDbLine
 10
1268.155858831357
 20
415.1838003926025
 30
0.0
 11
1260.186512770858
 21
415.1838003926025
 31
0.0
  0
LINE
  5
10D9
330
A
100
AcDbEntity
  8
1
  6
Continuous
100
AcDbLine
 10
1270.743014573857
 20
454.399699265602
 30
0.0
 11
1264.567760319357
 21
453.859434524102
 31
0.0
  0
ARC
  5
10DA
330
A
100
AcDbEntity
  8
1
  6
Continuous
100
AcDbCircle
 10
1260.154916061857
 20
418.6838003926026
 30
0.0
 40
3.5
100
AcDbArc
 50
270.0
 51
358.1791789245999
  0
LINE
  5
10DB
330
A
100
AcDbEntity
  8
1
  6
Continuous
100
AcDbLine
 10
1271.655858831358
 20
453.423292432602
 30
0.0
 11
1271.655858831358
 21
418.6838003926026
 31
0.0
  0
LINE
  5
10DC
330
A
100
AcDbEntity
  8
1
  6
Continuous
100
AcDbLine
 10
1271.655858831358
 20
453.423292432602
 30
0.0
 11
1271.655858831358
 21
455.3958939636025
 31
0.0
  0
LINE
  5
10DD
330
A
100
AcDbEntity
  8
1
  6
Continuous
100
AcDbLine
 10
1263.654916061857
 20
418.6838003926026
 30
0.0
 11
1263.653148841358
 21
418.5725914836025
 31
0.0
  0
ARC
  5
10DE
330
A
100
AcDbEntity
  8
1
  6
Continuous
100
AcDbCircle
 10
1264.654916061857
 20
452.863239826102
 30
0.0
 40
1.0
100
AcDbArc
 50
95.0
 51
180.0
  0
LINE
  5
10E2
330
A
100
AcDbEntity
  8
1
  6
Continuous
100
AcDbLine
 10
1282.277570226358
 20
458.9222115556021
 30
0.0
 11
1280.285180829858
 21
458.7479000701025
 31
0.0
  0
LINE
  5
10E3
330
A
100
AcDbEntity
  8
1
  6
Continuous
100
AcDbLine
 10
1280.198025087357
 20
459.7440947681025
 30
0.0
 11
1282.190414483358
 21
459.9184062536024
 31
0.0
  0
LINE
  5
10E4
330
A
100
AcDbEntity
  8
1
  6
Continuous
100
AcDbLine
 10
1271.580895775358
 20
454.9749142911024
 30
0.0
 11
1271.577925631357
 21
455.008863194602
 31
0.0
  0
LINE
  5
10E6
330
A
100
AcDbEntity
  8
1
  6
Continuous
100
AcDbLine
 10
1282.277570226358
 20
458.9222115556021
 30
0.0
 11
1282.190414483358
 21
459.9184062536024
 31
0.0
  0
ARC
  5
10F1
330
A
100
AcDbEntity
  8
1
  6
Continuous
100
AcDbCircle
 10
1201.959675090858
 20
441.8523232666024
 30
0.0
 40
22.99999999999999
100
AcDbArc
 50
95.0
 51
275.0
  0
ARC
  5
10F2
330
A
100
AcDbEntity
  8
1
  6
Continuous
100
AcDbCircle
 10
1220.948109183858
 20
426.9504526071024
 30
0.0
 40
1.999884381
100
AcDbArc
 50
274.9986688928999
 51
14.31072238929993
  0
ARC
  5
10F3
330
A
100
AcDbEntity
  8
1
  6
Continuous
100
AcDbCircle
 10
1213.740852208357
 20
426.3198993266025
 30
0.0
 40
1.999884381
100
AcDbArc
 50
175.6892776104
 51
275.0013311073
  0
ARC
  5
10F4
330
A
100
AcDbEntity
  8
1
  6
Continuous
100
AcDbCircle
 10
1218.071949519857
 20
459.825108003102
 30
0.0
 40
1.999884381
100
AcDbArc
 50
355.6892776104
 51
95.00133110739998
  0
ARC
  5
10F5
330
A
100
AcDbEntity
  8
1
  6
Continuous
100
AcDbCircle
 10
1210.864692543857
 20
459.1945547226025
 30
0.0
 40
1.999884381
100
AcDbArc
 50
94.99866889289997
 51
194.3107223892999
  0
ARC
  5
10F6
330
A
100
AcDbEntity
  8
1
  6
Continuous
100
AcDbCircle
 10
1229.853126725858
 20
444.2926840711019
 30
0.0
 40
22.99999999999999
100
AcDbArc
 50
275.0000000238999
 51
95.00000002389999
  0
LINE
  5
10F7
330
A
100
AcDbEntity
  8
1
  6
Continuous
100
AcDbLine
 10
1214.399916129857
 20
466.0285595926025
 30
0.0
 11
1227.848544632857
 21
467.2051621266025
 31
0.0
  0
LINE
  5
10F8
330
A
100
AcDbEntity
  8
1
  6
Continuous
100
AcDbLine
 10
1199.955093007357
 20
464.7648013226026
 30
0.0
 11
1213.403721431857
 21
465.9414038496024
 31
0.0
  0
LINE
  5
10F9
330
A
100
AcDbEntity
  8
1
  6
Continuous
100
AcDbLine
 10
1217.412885588858
 20
420.1164477366024
 30
0.0
 11
1203.964257173857
 21
418.9398452106024
 31
0.0
  0
LINE
  5
10FA
330
A
100
AcDbEntity
  8
1
  6
Continuous
100
AcDbLine
 10
1231.857708818357
 20
421.3802060161025
 30
0.0
 11
1218.409080286858
 21
420.2036034796025
 31
0.0
  0
ARC
  5
1100
330
A
100
AcDbEntity
  8
1
  6
Continuous
100
AcDbCircle
 10
1229.853126725858
 20
444.2926840711019
 30
0.0
 40
21.04363433899999
100
AcDbArc
 50
275.0
 51
95.0
  0
LINE
  5
1102
330
A
100
AcDbEntity
  8
1
  6
Continuous
100
AcDbLine
 10
1231.687200306857
 20
423.3291271141025
 30
0.0
 11
1203.793748671858
 21
420.8887663096025
 31
0.0
  0
ARC
  5
1103
330
A
100
AcDbEntity
  8
1
  6
Continuous
100
AcDbCircle
 10
1201.959675090858
 20
441.8523232666024
 30
0.0
 40
21.04363433899999
100
AcDbArc
 50
95.0
 51
275.0
  0
LINE
  5
1104
330
A
100
AcDbEntity
  8
1
  6
Continuous
100
AcDbLine
 10
1200.125601509858
 20
462.8158802236019
 30
0.0
 11
1228.019053144858
 21
465.2562410281024
 31
0.0
  0
LINE
  5
1106
330
A
100
AcDbEntity
  8
1
  6
Continuous
100
AcDbLine
 10
1203.789945688358
 20
420.9322346066024
 30
0.0
 11
1203.793748671858
 21
420.8887663096025
 31
0.0
  0
ARC
  5
1107
330
A
100
AcDbEntity
  8
1
  6
Continuous
100
AcDbCircle
 10
1213.901818780857
 20
465.9849817211025
 30
0.0
 40
0.5
100
AcDbArc
 50
4.999999999999957
 51
184.9999999999999
  0
ARC
  5
1108
330
A
100
AcDbEntity
  8
1
  6
Continuous
100
AcDbCircle
 10
1217.910982937858
 20
420.1600256081024
 30
0.0
 40
0.5
100
AcDbArc
 50
184.9999999999999
 51
4.999999999999957
  0
LINE
  5
110F
330
A
100
AcDbEntity
  8
1
  6
Continuous
100
AcDbLine
 10
1221.122364307857
 20
424.9581743411025
 30
0.0
 11
1213.915199901858
 21
424.3276291596025
 31
0.0
  0
ARC
  5
1110
330
A
100
AcDbEntity
  8
1
  6
Continuous
100
AcDbCircle
 10
1319.783459442358
 20
452.160568691102
 30
0.0
 40
100.0
100
AcDbArc
 50
175.6906087177999
 51
194.3093912822
  0
ARC
  5
1111
330
A
100
AcDbEntity
  8
1
  6
Continuous
100
AcDbCircle
 10
1112.029342285857
 20
433.9844386391025
 30
0.0
 40
100.0
100
AcDbArc
 50
355.6906087178
 51
14.30939128220001
  0
LINE
  5
1112
330
A
100
AcDbEntity
  8
1
  6
Continuous
100
AcDbLine
 10
1210.690437420357
 20
461.1868329886026
 30
0.0
 11
1217.897601825858
 21
461.817378170602
 31
0.0
  0
LINE
  5
1123
330
A
100
AcDbEntity
  8
1
  6
Continuous
100
AcDbLine
 10
1210.438262732358
 20
461.3655345301024
 30
0.0
 11
1218.114914393857
 21
462.037154524102
 31
0.0
  0
ARC
  5
1124
330
A
100
AcDbEntity
  8
1
  6
Continuous
100
AcDbCircle
 10
1210.612574217857
 20
459.3731451336024
 30
0.0
 40
2.0
100
AcDbArc
 50
95.0
 51
194.4418860310999
  0
ARC
  5
1125
330
A
100
AcDbEntity
  8
1
  6
Continuous
100
AcDbCircle
 10
1218.289225879358
 20
460.044765128102
 30
0.0
 40
2.0
100
AcDbArc
 50
355.5581139689
 51
95.0
  0
ARC
  5
1126
330
A
100
AcDbEntity
  8
1
  6
Continuous
100
AcDbCircle
 10
1319.783459442358
 20
452.160568691102
 30
0.0
 40
99.80000000000002
100
AcDbArc
 50
175.5581139688999
 51
194.4418860310999
  0
ARC
  5
1127
330
A
100
AcDbEntity
  8
1
  6
Continuous
100
AcDbCircle
 10
1221.200227687358
 20
426.7718622116024
 30
0.0
 40
2.0
100
AcDbArc
 50
275.0
 51
14.44188603109993
  0
LINE
  5
1128
330
A
100
AcDbEntity
  8
1
  6
Continuous
100
AcDbLine
 10
1221.374539172857
 20
424.7794728156025
 30
0.0
 11
1213.697887511357
 21
424.1078528211025
 31
0.0
  0
ARC
  5
1129
330
A
100
AcDbEntity
  8
1
  6
Continuous
100
AcDbCircle
 10
1213.523576025858
 20
426.1002422176025
 30
0.0
 40
2.0
100
AcDbArc
 50
175.5581139688999
 51
275.0
  0
ARC
  5
112A
330
A
100
AcDbEntity
  8
1
  6
Continuous
100
AcDbCircle
 10
1112.029342462857
 20
433.9844386546025
 30
0.0
 40
99.80000000000002
100
AcDbArc
 50
355.5581139689
 51
14.44188603109993
  0
LINE
  5
112F
330
A
100
AcDbEntity
  8
1
  6
Continuous
100
AcDbLine
 10
1283.519539560357
 20
444.7264371076021
 30
0.0
 11
1281.527150164358
 21
444.552125622102
 31
0.0
  0
LINE
  5
1130
330
A
100
AcDbEntity
  8
1
  6
Continuous
100
AcDbLine
 10
1283.650273174358
 20
443.2321450606024
 30
0.0
 11
1281.657883778358
 21
443.0578335751024
 31
0.0
  0
LINE
  5
1131
330
A
100
AcDbEntity
  8
1
  6
Continuous
100
AcDbLine
 10
1283.802795724358
 20
441.488804339102
 30
0.0
 11
1281.810406328357
 21
441.3144928536025
 31
0.0
  0
LINE
  5
1132
330
A
100
AcDbEntity
  8
1
  6
Continuous
100
AcDbLine
 10
1283.367017010357
 20
446.4697778296025
 30
0.0
 11
1281.374627614358
 21
446.2954663441019
 31
0.0
  0
ARC
  5
1133
330
A
100
AcDbEntity
  8
1
  6
Continuous
100
AcDbCircle
 10
1281.554271527858
 20
432.7684137696024
 30
0.0
 40
1.0
100
AcDbArc
 50
275.4999999999999
 51
4.999999999999957
  0
ARC
  5
1134
330
A
100
AcDbEntity
  8
1
  6
Continuous
100
AcDbCircle
 10
1278.069569648857
 20
472.5987385076025
 30
0.0
 40
1.0
100
AcDbArc
 50
4.999999999999957
 51
94.50000000000001
  0
LINE
  5
1135
330
A
100
AcDbEntity
  8
1
  6
Continuous
100
AcDbLine
 10
1281.650117280358
 20
431.7730175716024
 30
0.0
 11
1280.645996487858
 21
431.676331736102
 31
0.0
  0
LINE
  5
1136
330
A
100
AcDbEntity
  8
1
  6
Continuous
100
AcDbLine
 10
1276.985455292858
 20
473.5165090561026
 30
0.0
 11
1277.991110553357
 21
473.5956558416019
 31
0.0
  0
LINE
  5
1137
330
A
100
AcDbEntity
  8
1
  6
Continuous
100
AcDbLine
 10
1282.202607170358
 20
436.8316167121025
 30
0.0
 11
1282.550466225857
 21
432.855569512602
 31
0.0
  0
LINE
  5
1138
330
A
100
AcDbEntity
  8
1
  6
Continuous
100
AcDbLine
 10
1279.413623402357
 20
468.7098470511026
 30
0.0
 11
1282.202607170358
 21
436.8316167121025
 31
0.0
  0
LINE
  5
1139
330
A
100
AcDbEntity
  8
1
  6
Continuous
100
AcDbLine
 10
1279.065764346857
 20
472.6858942506025
 30
0.0
 11
1279.413623402357
 21
468.7098470511026
 31
0.0
  0
ARC
  5
113A
330
A
100
AcDbEntity
  8
1
  6
Continuous
100
AcDbCircle
 10
1283.584906367358
 20
443.9792910841025
 30
0.0
 40
2.5
100
AcDbArc
 50
275.0
 51
95.0
  0
ARC
  5
113B
330
A
100
AcDbEntity
  8
1
  6
Continuous
100
AcDbCircle
 10
1283.584906367358
 20
443.9792910841025
 30
0.0
 40
0.75
100
AcDbArc
 50
275.0
 51
95.0
  0
LINE
  5
113C
330
A
100
AcDbEntity
  8
1
  6
Continuous
100
AcDbLine
 10
1293.870639211857
 20
446.8868157791025
 30
0.0
 11
1293.153783227857
 21
455.080517171102
 31
0.0
  0
ARC
  5
113D
330
A
100
AcDbEntity
  8
1
  6
Continuous
100
AcDbCircle
 10
1284.686128293857
 20
454.339693357602
 30
0.0
 40
8.5
100
AcDbArc
 50
4.999999999999957
 51
95.0
  0
LINE
  5
113E
330
A
100
AcDbEntity
  8
1
  6
Continuous
100
AcDbLine
 10
1283.945304480857
 20
462.8073482916025
 30
0.0
 11
1279.960525688357
 21
462.458725320602
 31
0.0
  0
LINE
  5
113F
330
A
100
AcDbEntity
  8
1
  6
Continuous
100
AcDbLine
 10
1293.870639211857
 20
446.8868157791025
 30
0.0
 11
1290.993738519357
 21
446.635119582602
 31
0.0
  0
LINE
  5
1140
330
A
100
AcDbEntity
  8
1
  6
Continuous
100
AcDbLine
 10
1290.179562875358
 20
446.5638884436025
 30
0.0
 11
1284.904886928857
 21
446.102414094602
 31
0.0
  0
LINE
  5
1141
330
A
100
AcDbEntity
  8
1
  6
Continuous
100
AcDbLine
 10
1290.993738519357
 20
446.635119582602
 30
0.0
 11
1290.179562875358
 21
446.5638884436025
 31
0.0
  0
LINE
  5
1142
330
A
100
AcDbEntity
  8
1
  6
Continuous
100
AcDbLine
 10
1284.496896817857
 20
456.606827879102
 30
0.0
 11
1283.989751630358
 21
456.5624584246025
 31
0.0
  0
LINE
  5
1143
330
A
100
AcDbEntity
  8
1
  6
Continuous
100
AcDbLine
 10
1284.599841829358
 20
449.5890955376025
 30
0.0
 11
1285.107742859358
 21
449.6335311201019
 31
0.0
  0
LINE
  5
1144
330
A
100
AcDbEntity
  8
1
  6
Continuous
100
AcDbLine
 10
1286.592231225857
 20
449.7634070231025
 30
0.0
 11
1287.090328574857
 21
449.8069848946025
 31
0.0
  0
LINE
  5
1145
330
A
100
AcDbEntity
  8
1
  6
Continuous
100
AcDbLine
 10
1290.577010017857
 20
450.1120299941019
 30
0.0
 11
1289.966919818858
 21
457.0853928811025
 31
0.0
  0
LINE
  5
1146
330
A
100
AcDbEntity
  8
1
  6
Continuous
100
AcDbLine
 10
1286.436660503857
 20
457.2784451306024
 30
0.0
 11
1287.133906445858
 21
449.3088875456025
 31
0.0
  0
LINE
  5
1147
330
A
100
AcDbEntity
  8
1
  6
Continuous
100
AcDbLine
 10
1289.425244598357
 20
457.5399123586024
 30
0.0
 11
1290.122490540357
 21
449.570354774102
 31
0.0
  0
LINE
  5
1148
330
A
100
AcDbEntity
  8
1
  6
Continuous
100
AcDbLine
 10
1282.949979060857
 20
456.9734000306025
 30
0.0
 11
1283.647225002858
 21
449.0038424461025
 31
0.0
  0
LINE
  5
1149
330
A
100
AcDbEntity
  8
1
  6
Continuous
100
AcDbLine
 10
1283.946173758858
 20
457.0605557736019
 30
0.0
 11
1284.643419700857
 21
449.090998188602
 31
0.0
  0
LINE
  5
114A
330
A
100
AcDbEntity
  8
1
  6
Continuous
100
AcDbLine
 10
1289.966919818858
 20
457.0853928811025
 30
0.0
 11
1289.425244598357
 21
457.5399123586024
 31
0.0
  0
ARC
  5
114B
330
A
100
AcDbEntity
  8
1
  6
Continuous
100
AcDbCircle
 10
1284.937223195357
 20
460.0747003721025
 30
0.0
 40
3.497662059
100
AcDbArc
 50
262.6193324847999
 51
287.3822949318
  0
ARC
  5
114C
330
A
100
AcDbEntity
  8
1
  6
Continuous
100
AcDbCircle
 10
1286.143173648358
 20
446.2905446456026
 30
0.0
 40
3.5017746645
100
AcDbArc
 50
82.6322646104
 51
107.3656021721998
  0
LINE
  5
114D
330
A
100
AcDbEntity
  8
1
  6
Continuous
100
AcDbLine
 10
1289.425244598357
 20
457.5399123586024
 30
0.0
 11
1286.436660503857
 21
457.2784451306024
 31
0.0
  0
LINE
  5
114E
330
A
100
AcDbEntity
  8
1
  6
Continuous
100
AcDbLine
 10
1290.122490540357
 20
449.570354774102
 30
0.0
 11
1290.577010017857
 21
450.1120299941019
 31
0.0
  0
LINE
  5
114F
330
A
100
AcDbEntity
  8
1
  6
Continuous
100
AcDbLine
 10
1283.946173758858
 20
457.0605557736019
 30
0.0
 11
1282.949979060857
 21
456.9734000306025
 31
0.0
  0
LINE
  5
1150
330
A
100
AcDbEntity
  8
1
  6
Continuous
100
AcDbLine
 10
1287.133906445858
 20
449.3088875456025
 30
0.0
 11
1290.122490540357
 21
449.570354774102
 31
0.0
  0
LINE
  5
1151
330
A
100
AcDbEntity
  8
1
  6
Continuous
100
AcDbLine
 10
1283.647225002858
 20
449.0038424461025
 30
0.0
 11
1284.643419700857
 21
449.090998188602
 31
0.0
  0
LINE
  5
1152
330
A
100
AcDbEntity
  8
1
  6
Continuous
100
AcDbLine
 10
1283.080712674858
 20
455.4791079836025
 30
0.0
 11
1280.590225929858
 21
455.2612186266025
 31
0.0
  0
LINE
  5
1153
330
A
100
AcDbEntity
  8
1
  6
Continuous
100
AcDbLine
 10
1281.026004643358
 20
450.2802451361019
 30
0.0
 11
1283.516491388858
 21
450.4981344931025
 31
0.0
  0
LINE
  5
1154
330
A
100
AcDbEntity
  8
1
  6
Continuous
100
AcDbLine
 10
1286.480238375357
 20
456.7803477811025
 30
0.0
 11
1285.979250527858
 21
456.7365170241019
 31
0.0
  0
ARC
  5
11B7
330
A
100
AcDbEntity
  8
1
  6
Continuous
100
AcDbCircle
 10
735.0443962878574
 20
504.7491974996019
 30
0.0
 40
28.86998510899999
100
AcDbArc
 50
277.4514431108781
 51
285.7684629621999
  0
VIEWPORT
  5
926
330
91E
100
AcDbEntity
 67
     1
  8
0
  6
Continuous
100
AcDbViewport
 10
209.9671953583073
 20
148.3888268190047
 30
0.0
 40
444.5275080566406
 41
364.7875220753463
 68
     1
 69
     1
 12
209.9671953583073
 22
148.3888268190047
 13
0.0
 23
0.0
 14
10.0
 24
10.0
 15
10.0
 25
10.0
 16
0.0
 26
0.0
 36
1.0
 17
0.0
 27
0.0
 37
0.0
 42
50.0
 43
0.0
 44
0.0
 45
364.7875220753463
 50
0.0
 51
0.0
 72
   100
 90
    32800
  1

281
     0
 71
     1
 74
     0
110
0.0
120
0.0
130
0.0
111
1.0
121
0.0
131
0.0
112
0.0
122
1.0
132
0.0
 79
     0
146
0.0
  0
VIEWPORT
  5
928
330
91E
100
AcDbEntity
 67
     1
  8
DEFPOINTS
  6
Continuous
100
AcDbViewport
 10
209.3611937485618
 20
146.88414218112
 30
0.0
 40
408.5751207468915
 41
283.6558996856321
 68
     2
 69
     2
 12
1043.114680809326
 22
719.8386219712801
 13
0.0
 23
0.0
 14
1.0
 24
1.0
 15
0.0
 25
0.0
 16
0.0
 26
0.0
 36
1.0
 17
0.0
 27
0.0
 37
0.0
 42
50.0
 43
0.0
 44
0.0
 45
1418.279498160823
 50
0.0
 51
0.0
 72
   100
 90
    32800
  1

281
     0
 71
     1
 74
     0
110
0.0
120
0.0
130
0.0
111
1.0
121
0.0
131
0.0
112
0.0
122
1.0
132
0.0
 79
     0
146
0.0
  0
ENDSEC
  0
SECTION
  2
OBJECTS
  0
DICTIONARY
  5
19
330
0
100
AcDbDictionary
281
     1
  3
ACAD_COLOR
350
74E
  3
ACAD_GROUP
350
1A
  3
ACAD_LAYOUT
350
74F
  3
ACAD_MATERIAL
350
74D
  3
ACAD_MLINESTYLE
350
1B
  3
ACAD_PLOTSETTINGS
350
750
  3
ACAD_PLOTSTYLENAME
350
74B
  3
ACDBVARIABLEDICTIONARY
350
746
  0
DICTIONARY
  5
9C8
330
2
100
AcDbDictionary
280
     1
281
     1
  3
ACAD_LAYERFILTERS
360
11B3
  3
ACAD_LAYERSTATES
360
9C9
  0
DICTIONARY
  5
949
330
A
100
AcDbDictionary
280
     1
281
     1
  3
ACAD_LAYOUTSELFREF
360
94A
  0
DICTIONARY
  5
94D
330
91E
100
AcDbDictionary
280
     1
281
     1
  3
ACAD_LAYOUTSELFREF
360
94E
  0
DICTIONARY
  5
74E
102
{ACAD_REACTORS
330
19
102
}
330
19
100
AcDbDictionary
281
     1
  0
DICTIONARY
  5
1A
102
{ACAD_REACTORS
330
19
102
}
330
19
100
AcDbDictionary
281
     1
  0
DICTIONARY
  5
74F
102
{ACAD_REACTORS
330
19
102
}
330
19
100
AcDbDictionary
281
     1
  3
Model
350
955
  3
ﾚｲｱｳﾄ1
350
956
  0
DICTIONARY
  5
74D
102
{ACAD_REACTORS
330
19
102
}
330
19
100
AcDbDictionary
281
     1
  0
DICTIONARY
  5
1B
102
{ACAD_REACTORS
330
19
102
}
330
19
100
AcDbDictionary
281
     1
  3
STANDARD
350
1C
  0
DICTIONARY
  5
750
102
{ACAD_REACTORS
330
19
102
}
330
19
100
AcDbDictionary
281
     1
  0
ACDBDICTIONARYWDFLT
  5
74B
102
{ACAD_REACTORS
330
19
102
}
330
19
100
AcDbDictionary
281
     1
  3
Normal
350
74C
100
AcDbDictionaryWithDefault
340
74C
  0
DICTIONARY
  5
746
330
19
100
AcDbDictionary
281
     1
  3
DIMASSOC
350
747
  3
PROJECTNAME
350
836
  0
DICTIONARY
  5
11B3
102
{ACAD_REACTORS
330
9C8
102
}
330
9C8
100
AcDbDictionary
280
     1
281
     1
  0
DICTIONARY
  5
9C9
102
{ACAD_REACTORS
330
9C8
102
}
330
9C8
100
AcDbDictionary
281
     1
  0
XRECORD
  5
94A
102
{ACAD_REACTORS
330
949
102
}
330
949
100
AcDbXrecord
280
     1
340
A
  0
XRECORD
  5
94E
102
{ACAD_REACTORS
330
94D
102
}
330
94D
100
AcDbXrecord
280
     1
340
91E
  0
LAYOUT
  5
955
102
{ACAD_REACTORS
330
74F
102
}
330
74F
100
AcDbPlotSettings
  1

  2
RICOH IPSiO NX710
  4

  6

 40
0.0
 41
0.0
 42
0.0
 43
0.0
 44
0.0
 45
0.0
 46
0.0
 47
0.0
 48
0.0
 49
0.0
140
0.0
141
0.0
142
1.0
143
1.0
 70
  1712
 72
     0
 73
     0
 74
     0
  7
monochrome.ctb
 75
     0
147
1.0
148
0.0
149
0.0
100
AcDbLayout
  1
Model
 70
     1
 71
     0
 10
0.0
 20
0.0
 11
12.0
 21
9.0
 12
0.0
 22
0.0
 32
0.0
 14
0.0
 24
0.0
 34
0.0
 15
0.0
 25
0.0
 35
0.0
146
0.0
 13
0.0
 23
0.0
 33
0.0
 16
1.0
 26
0.0
 36
0.0
 17
0.0
 27
1.0
 37
0.0
 76
     0
330
A
  0
LAYOUT
  5
956
102
{ACAD_REACTORS
330
74F
102
}
330
74F
100
AcDbPlotSettings
  1

  2
Acrobat Distiller
  4
A3
  6

 40
3.174999952316284
 41
3.174999952316284
 42
3.17498779296875
 43
3.17498779296875
 44
297.0318298339843
 45
420.1583251953125
 46
0.0
 47
0.0
 48
0.0
 49
0.0
140
0.0
141
0.0
142
1.0
143
1.0
 70
   688
 72
     1
 73
     1
 74
     5
  7
monochrome.ctb
 75
    16
147
1.0
148
-3.063020553619821
149
-3.047911854328845
100
AcDbLayout
  1
ﾚｲｱｳﾄ1
 70
     1
 71
     1
 10
-0.1119672393489282
 20
-0.1270880979874391
 11
420.0463579559635
 21
296.9047417359969
 12
0.0
 22
0.0
 32
0.0
 14
5.073633375116088
 24
5.056192338304015
 34
0.0
 15
413.6487541220075
 25
288.7120920239361
 35
0.0
146
0.0
 13
0.0
 23
0.0
 33
0.0
 16
1.0
 26
0.0
 36
0.0
 17
0.0
 27
1.0
 37
0.0
 76
     0
330
91E
331
926
  0
MLINESTYLE
  5
1C
102
{ACAD_REACTORS
330
1B
102
}
330
1B
100
AcDbMlineStyle
  2
STANDARD
 70
     0
  3

 62
     0
 51
90.0
 52
90.0
 71
     2
 49
0.5
 62
   256
  6
BYLAYER
 49
-0.5
 62
   256
  6
BYLAYER
  0
ACDBPLACEHOLDER
  5
74C
102
{ACAD_REACTORS
330
74B
102
}
330
74B
  0
DICTIONARYVAR
  5
747
330
746
100
DictionaryVariables
280
     0
  1
2
  0
DICTIONARYVAR
  5
836
102
{ACAD_REACTORS
330
746
102
}
330
746
100
DictionaryVariables
280
     0
  1

  0
ENDSEC
  0
EOF
